Super Vintage – Welcome To Mojo Land (2016)

Download
Super Vintage - Welcome To Mojo Land (2016)

Super Vintage – Welcome To Mojo Land (2016)
EAC Rip | FLAC (image & cue & log) -> 368 MB | Full Artwork @ (jpg, 600 dpi)-> 94.8 MB | 49:22
Genre: Hard-Rock, Blues-Rock | Label: Grooveyard Records | # 888295524063

Awesome 3rd studio disc by this excellent blues-based hard rock band from Greece featuring 11 tracks of outstanding, dynamic, soul-powered, retro-sonic, twin guitar fueled, Southern rockin’ mojo that land rock solid at the crossroads of melodic, classic rock excellence. With an abundance of strong memorable songs, top-shelf musicianship and a 1st rate sonic production that speaks the rock n’ roll truth, Super Vintage have

cdbaby | bear-family

Tracklist:

01. Southern Moon Rising [0:05:55.48]
02. Delta Mud [0:04:35.48]
03. Son Of Pain [0:04:42.48]
04. Kiss Your Bad Feelings Goodbye [0:03:45.48]
05. Still Alive [0:05:45.48]
06. Let Me Be What I Want To Be [0:03:08.48]
07. Rock ‘N Roll Revolution [0:04:04.48]
08. Living Like A Gypsy [0:04:11.48]
09. Mojo Land [0:03:36.48]
10. River Of Love [0:04:38.48]
11. Light Upon My Soul [0:04:56.48]

EAC Log
Exact Audio Copy V1.1 from 23. June 2015

Отчёт EAC об извлечении, выполненном 27. декабря 2016, 20:21

Super Vintage / Welcome To Mojo Land

Дисковод: ATAPI iHAS122 E Adapter: 1 ID: 1

Режим чтения : Достоверность
Использование точного потока : Да
Отключение кэша аудио : Да
Использование указателей C2 : Нет

Коррекция смещения при чтении : 6
Способность читать области Lead-in и Lead-out : Нет
Заполнение пропущенных сэмплов тишиной : Да
Удаление блоков с тишиной в начале и конце : Нет
При вычислениях CRC использовались нулевые сэмплы : Да
Интерфейс : Встроенный Win32-интерфейс для Win NT/2000

Выходной формат : Пользовательский кодировщик
Выбранный битрейт : 896 kBit/s
Качество : Высокий
Добавление ID3-тега : Нет
Утилита сжатия : C:Exact Audio CopyFLACFLAC.EXE
Дополнительные параметры : -6 -V -T "ARTIST=%artist%" -T "TITLE=%title%" -T "ALBUM=%albumtitle%" -T "DATE=%year%" -T "TRACKNUMBER=%tracknr%" -T "GENRE=%genre%" -T "COMMENT=%comment%" -T "BAND=%albuminterpret%" -T "ALBUMARTIST=%albuminterpret%" -T "COMPOSER=%composer%" %haslyrics%–tag-from-file=LYRICS="%lyricsfile%"%haslyrics% -T "DISCNUMBER=%cdnumber%" -T "TOTALDISCS=%totalcds%" -T "TOTALTRACKS=%numtracks%" %hascover%–picture="%coverfile%"%hascover% %source% -o %dest%

TOC извлечённого CD

Трек | Старт | Длительность | Начальный сектор | Конечный сектор
––––––––––––––––––––––––––––––––––-
1 | 0:00.00 | 5:55.48 | 0 | 26672
2 | 5:55.48 | 4:35.48 | 26673 | 47345
3 | 10:31.21 | 4:42.48 | 47346 | 68543
4 | 15:13.69 | 3:45.48 | 68544 | 85466
5 | 18:59.42 | 5:45.48 | 85467 | 111389
6 | 24:45.15 | 3:08.48 | 111390 | 125537
7 | 27:53.63 | 4:04.48 | 125538 | 143885
8 | 31:58.36 | 4:11.48 | 143886 | 162758
9 | 36:10.09 | 3:36.48 | 162759 | 179006
10 | 39:46.57 | 4:38.48 | 179007 | 199904
11 | 44:25.30 | 4:56.48 | 199905 | 222152

Характеристики диапазона извлечения и сообщения об ошибках

Выбранный диапазон

Имя файла K:My Uploads-9Super Vintage – Welcome To Mojo Land – 2016 49’24”Super Vintage – Welcome To Mojo Land.wav

Пиковый уровень 100.0 %
Скорость извлечения 6.9 X
Качество диапазона 99.9 %
CRC теста 0314842F
CRC копии 0314842F
Копирование… OK

Ошибок не произошло

Конец отчёта

–– CUETools DB Plugin V2.1.6

[CTDB TOCID: kLozRRePYwM..ityyWX5k6fimzw-] disk not present in database
Submit result: kLozRRePYwM..ityyWX5k6fimzw- has been uploaded

==== Контрольная сумма отчёта 6230FC3E9D626F35652A78A7A38A31CB1FAEFFF2C405F61E0C53BF967456B950 ====

Super Vintage – Welcome To Mojo Land (2016) Download, Warez, DDL, Free, Full Album, Torrent, Legal.

Download