Sunshine Anderson – Sunshine At Midnight (2007)

Download
Sunshine Anderson - Sunshine At Midnight (2007)

Sunshine Anderson – Sunshine At Midnight (2007)
EAC Rip | FLAC (Tracks) +CUE, LOG | 310 MB | Covers Included
Genre: R&B, Soul, Neo-Soul | Label: Music World Music | Catalog Number: MWM0102

Sunshine Anderson is the latest in a long line of confident female R&B singers to whom self-realization is a given, and who have no problem demanding their due from their often inadequate men. Her second album, imaginatively produced with a wide range of hip, grainy-sounding beats, deals with the tough realities of relationships, in songs as varied as the grittily realistic "Problems," "Switch It Up," superficially about romance gone stale but more concerned with turning a life around, and the galumphing "Trust," whose mutant beat buffers a tale of deceit. Anderson never leaves any doubt who’s in control, though she can still turn on the erotic softness in silk-sheet jams like "Force of Nature." [AllMusic Review by AllMusic]

EAC Log
Exact Audio Copy V0.99 prebeta 5 from 4. May 2009

EAC extraction logfile from 14. December 2010, 0:17

Sunshine Anderson / Sunshine At Midnight

Used drive : HL-DT-STDVDRAM GSA-H62N Adapter: 0 ID: 1

Read mode : Secure
Utilize accurate stream : Yes
Defeat audio cache : Yes
Make use of C2 pointers : No

Read offset correction : 667
Overread into Lead-In and Lead-Out : No
Fill up missing offset samples with silence : Yes
Delete leading and trailing silent blocks : No
Null samples used in CRC calculations : No
Used interface : Native Win32 interface for Win NT & 2000
Gap handling : Appended to previous track

Used output format : User Defined Encoder
Selected bitrate : 768 kBit/s
Quality : High
Add ID3 tag : No
Command line compressor : C:Program FilesExact Audio CopyFLACFLAC.EXE
Additional command line options : -6 -V -T "ARTIST=%a" -T "TITLE=%t" -T "ALBUM=%g" -T "DATE=%y" -T "TRACKNUMBER=%n" -T "GENRE=%m" -T "COMMENT=%e" %s -o %d

TOC of the extracted CD

Track | Start | Length | Start sector | End sector
––––––––––––––––––––––––––––-
1 | 0:00.00 | 3:45.47 | 0 | 16921
2 | 3:45.47 | 3:34.63 | 16922 | 33034
3 | 7:20.35 | 3:25.70 | 33035 | 48479
4 | 10:46.30 | 4:17.20 | 48480 | 67774
5 | 15:03.50 | 4:12.55 | 67775 | 86729
6 | 19:16.30 | 3:46.67 | 86730 | 103746
7 | 23:03.22 | 4:30.73 | 103747 | 124069
8 | 27:34.20 | 3:36.30 | 124070 | 140299
9 | 31:10.50 | 3:50.37 | 140300 | 157586
10 | 35:01.12 | 3:58.45 | 157587 | 175481
11 | 38:59.57 | 3:47.20 | 175482 | 192526
12 | 42:47.02 | 3:24.30 | 192527 | 207856

Track 1

Filename C:UsersBigg RussDesktopNew FolderFLACSunshine Anderson – 2007 – Sunshine At Midnight [FLAC]1 – Something I Wanna Give You.wav

Pre-gap length 0:00:02.00

Peak level 97.7 %
Track quality 100.0 %
Test CRC A55E63FE
Copy CRC A55E63FE
Accurately ripped (confidence 3) [6E38DD0F]
Copy OK

Track 2

Filename C:UsersBigg RussDesktopNew FolderFLACSunshine Anderson – 2007 – Sunshine At Midnight [FLAC]2 – Trust.wav

Peak level 97.7 %
Track quality 99.9 %
Test CRC 2EC19E90
Copy CRC 2EC19E90
Accurately ripped (confidence 3) [A6EF82D1]
Copy OK

Track 3

Filename C:UsersBigg RussDesktopNew FolderFLACSunshine Anderson – 2007 – Sunshine At Midnight [FLAC]3 – My Whole Life.wav

Peak level 97.7 %
Track quality 100.0 %
Test CRC 79BA3A91
Copy CRC 79BA3A91
Accurately ripped (confidence 3) [C9DFAB0D]
Copy OK

Track 4

Filename C:UsersBigg RussDesktopNew FolderFLACSunshine Anderson – 2007 – Sunshine At Midnight [FLAC]4 – Switch It Up.wav

Peak level 97.7 %
Track quality 100.0 %
Test CRC 0D7FBBE5
Copy CRC 0D7FBBE5
Accurately ripped (confidence 3) [0B5FBD1A]
Copy OK

Track 5

Filename C:UsersBigg RussDesktopNew FolderFLACSunshine Anderson – 2007 – Sunshine At Midnight [FLAC]5 – Good Love.wav

Peak level 97.7 %
Track quality 100.0 %
Test CRC 862A105A
Copy CRC 862A105A
Accurately ripped (confidence 3) [78E15CE0]
Copy OK

Track 6

Filename C:UsersBigg RussDesktopNew FolderFLACSunshine Anderson – 2007 – Sunshine At Midnight [FLAC]6 – Being With You.wav

Peak level 97.7 %
Track quality 100.0 %
Test CRC AF40BB2E
Copy CRC AF40BB2E
Accurately ripped (confidence 3) [5D4A24FD]
Copy OK

Track 7

Filename C:UsersBigg RussDesktopNew FolderFLACSunshine Anderson – 2007 – Sunshine At Midnight [FLAC]7 – Problems.wav

Peak level 97.7 %
Track quality 99.9 %
Test CRC 6A7037CD
Copy CRC 6A7037CD
Accurately ripped (confidence 3) [BAABE803]
Copy OK

Track 8

Filename C:UsersBigg RussDesktopNew FolderFLACSunshine Anderson – 2007 – Sunshine At Midnight [FLAC]8 – Wear The Crown.wav

Peak level 97.7 %
Track quality 100.0 %
Test CRC 9874648D
Copy CRC 9874648D
Accurately ripped (confidence 3) [2FF248CD]
Copy OK

Track 9

Filename C:UsersBigg RussDesktopNew FolderFLACSunshine Anderson – 2007 – Sunshine At Midnight [FLAC]9 – Force Of Nature.wav

Peak level 97.7 %
Track quality 100.0 %
Test CRC 4370D843
Copy CRC 4370D843
Accurately ripped (confidence 3) [9127F0BB]
Copy OK

Track 10

Filename C:UsersBigg RussDesktopNew FolderFLACSunshine Anderson – 2007 – Sunshine At Midnight [FLAC]10 – Unbelievable.wav

Peak level 97.7 %
Track quality 100.0 %
Test CRC 21CC7AB0
Copy CRC 21CC7AB0
Accurately ripped (confidence 3) [3594B7EC]
Copy OK

Track 11

Filename C:UsersBigg RussDesktopNew FolderFLACSunshine Anderson – 2007 – Sunshine At Midnight [FLAC]11 – With You Baby.wav

Peak level 97.7 %
Track quality 100.0 %
Test CRC F1A354A7
Copy CRC F1A354A7
Accurately ripped (confidence 3) [F66D2934]
Copy OK

Track 12

Filename C:UsersBigg RussDesktopNew FolderFLACSunshine Anderson – 2007 – Sunshine At Midnight [FLAC]12 – Sunshine At Midnight.wav

Peak level 97.7 %
Track quality 100.0 %
Test CRC 143D54F5
Copy CRC 143D54F5
Accurately ripped (confidence 3) [AF6E8FC3]
Copy OK

All tracks accurately ripped

No errors occurred

End of status report

Tracklist:
01. Something I Wanna Give You [03:45]
02. Trust [03:34]
03. My Whole Life [03:25]
04. Switch It Up [04:17]
05. Good Love [04:12]
06. Being With You [03:46]
07. Problems [04:30]
08. Wear The Crown [03:36]
09. Force Of Nature [03:50]
10. Unbelievable [03:58]
11. With You Baby [03:47]
12. Sunshine At Midnight [03:24]

Sunshine Anderson – Sunshine At Midnight (2007) Download, Warez, DDL, Free, Full Album, Torrent, Legal.

Download