Sun Ra and his Arkestra – Thunder of The Gods (2017)

Download
Sun Ra and his Arkestra - Thunder of The Gods (2017)

Sun Ra and his Arkestra – Thunder of The Gods
EAC Rip | FLAC (tracks)+cue, log, m3u, front cover | 42:41 min | 227 MB
Label: Modern Harmonic – MHCD-021 | Tracks: 03 | Rls.date: 2017
Avant-Garde, Free Jazz

A new Sun Ra album touches ground in the earthly bins, 50 years after its creation!

Sun Ra is still trying to get our attention 50 years after dispatching this transmission. Humanity’s path since then makes his message even more urgent today. Years after Herman Poole “LeSony’r Ra” Blount “left the planet” he’s still trying to reach us, to wake us up and to change our destiny.

Sun Ra and the Arkestra weren’t a traditional studio band, and every star in the vast galaxy of their discography reflects this. The origins of these records can be hard to pinpoint at times, but when it comes to Thunder Of The Gods, it’s a bit easier. “Calling Planet Earth – We’ll Wait For You” was discovered on tapes from Ra’s, Universe In Blue, believed to be recorded in ’71. The raucous title track and “Moonshots Across the Sky” are unearthed from the ’66 Strange Strings sessions. Modern Harmonic has once again paired Ra’s sonic art with the visual art of “The Father of Modern Space Art,” Chesley Bonestell, whose 1952 work ”Formation of the Earth’s Continents” spralls across the front and back covers.
"Thanks to Modern Harmonic, in partnership with Sun Ra LLC, soon you will be holding an album of unreleased Sun Ra music 50 years after it was recorded! That this music survived to reach our ears after all of this time is quite a miraculous gift. It sounds as though it could have come from either the ancient past or the distant future, yet most perfectly, it’s the music of right now.” — Christopher Eddy (Sun Ra Arkive)

TRACKLIST
01. Calling Planet Earth – We’ll Wait For You (Stereo) (23:36)
02. Moonshots Across The Sky (Mono) (05:43)
03. Thunder Of The Gods (Mono) (13:26)

Credits
Alto Saxophone, Clarinet, Strings – Danny Davis
Alto Saxophone, Oboe, Piccolo Flute, Strings – Marshall Allen
Art Direction – Jon Hunt (4)
Baritone Saxophone, Flute – Danny Ray Thompson (tracks: 1)
Baritone Saxophone, Strings – Pat Patrick
Bass Clarinet, Flute – Eloe Omoe (tracks: 1)
Bass, Viola, Dutar – Ronnie Boykins
Cello – Alzo Wright (tracks: 1)
Coordinator [Production Coordination] – Stephanie Kennedy
Cover [Cover Art "Formation Of The Earth’s Continents"] – Chesley Bonestell
Curated By – Jay Millar
Drums – Lex Humphries (tracks: 1)
Engineer [Audio Restauration] – Irwin Chusid
Liner Notes – Christopher Eddy
Mastered By – Bob Irwin
Oboe, Flute, Slit Drum [Log Drums], Strings – James Jacson
Percussion – Clifford Jarvis
Strings – Art Jenkins, Carl Nimrod, Robert Cummings
Synthesizer [Moog], Organ [Intergalactic Space Organ], Drum [Lightning Drum], Strings, Composed By – Sun Ra
Tenor Saxophone, Strings – John Gilmore
Trombone – Charles Stevens* (tracks: 1)
Trombone, Strings – Ali Hassan
Trumpet – Akh Tal Ebah (tracks: 1), Kwame Hadi (tracks: 1)
Vocals – June Tyson (tracks: 1)

EAC Log
Exact Audio Copy V1.1 from 23. June 2015

EAC extraction logfile from 23. July 2017, 20:10

Sun Ra / Thunder Of The Gods

Used drive : ATAPI iHBS112 2 Adapter: 1 ID: 0

Read mode : Secure
Utilize accurate stream : Yes
Defeat audio cache : Yes
Make use of C2 pointers : No

Read offset correction : 6
Overread into Lead-In and Lead-Out : No
Fill up missing offset samples with silence : Yes
Delete leading and trailing silent blocks : No
Null samples used in CRC calculations : Yes
Used interface : Native Win32 interface for Win NT & 2000
Gap handling : Appended to previous track

Used output format : User Defined Encoder
Selected bitrate : 1024 kBit/s
Quality : High
Add ID3 tag : No
Command line compressor : C:Program Files (x86)Exact Audio CopyFLACFLAC.EXE
Additional command line options : -8 -e -V -T "ARTIST=%artist%" -T "TITLE=%title%" -T "ALBUM=%albumtitle%" -T "DATE=%year%" -T "TRACKNUMBER=%tracknr%" -T "GENRE=%genre%" -T "PERFORMER=%albuminterpret%" -T "COMPOSER=%composer%" %haslyrics%–tag-from-file=LYRICS="%lyricsfile%"%haslyrics% -T "ALBUMARTIST=%albumartist%" -T "DISCNUMBER=%cdnumber%" -T "TOTALDISCS=%totalcds%" -T "TOTALTRACKS=%numtracks%" -T "COMMENT=%comment%" %source% -o %dest%

TOC of the extracted CD

Track | Start | Length | Start sector | End sector
––––––––––––––––––––––––––––-
1 | 0:00.00 | 23:34.74 | 0 | 106123
2 | 23:34.74 | 5:44.30 | 106124 | 131953
3 | 29:19.29 | 13:23.26 | 131954 | 192204

Track 1

Filename E:RipsSun Ra and his Arkestra – Thunder of The Gods (2017) [CD]1 – Calling Planet Earth – We’ll Wait For You.wav

Pre-gap length 0:00:02.00

Peak level 98.8 %
Extraction speed 1.5 X
Track quality 99.9 %
Test CRC E7D2658A
Copy CRC E7D2658A
Accurately ripped (confidence 1) [19D99FA7] (AR v2)
Copy OK

Track 2

Filename E:RipsSun Ra and his Arkestra – Thunder of The Gods (2017) [CD]2 – Moonshots Across The Sky.wav

Pre-gap length 0:00:04.38

Peak level 86.3 %
Extraction speed 1.8 X
Track quality 100.0 %
Test CRC 4BEF47D6
Copy CRC 4BEF47D6
Accurately ripped (confidence 1) [4461F657] (AR v2)
Copy OK

Track 3

Filename E:RipsSun Ra and his Arkestra – Thunder of The Gods (2017) [CD]3 – Thunder Of The Gods.wav

Pre-gap length 0:00:04.07

Peak level 84.1 %
Extraction speed 2.1 X
Track quality 100.0 %
Test CRC 415430B8
Copy CRC 415430B8
Accurately ripped (confidence 1) [292EEFB5] (AR v2)
Copy OK

All tracks accurately ripped

No errors occurred

End of status report

–– CUETools DB Plugin V2.1.6

[CTDB TOCID: eTTQaQgO_mkZBvUgDwR5CJnbT38-] found
Submit result: eTTQaQgO_mkZBvUgDwR5CJnbT38- has been confirmed
Track | CTDB Status
1 | (8/8) Accurately ripped
2 | (8/8) Accurately ripped
3 | (8/8) Accurately ripped

==== Log checksum 639DE6DE6854A1B40FFA633CEF8165B5F3E64FB1DF6C4BCDC3E3D0BEC49A33EF ====

Thanks to the Original customer.

Sun Ra and his Arkestra – Thunder of The Gods (2017) Download, Warez, DDL, Free, Full Album, Torrent, Legal.

Download