Suicidal Angels – Division Of Blood (2016) [Limited Edition, CD+DVD] | ViralVideoPk

Daily Dose of Free Downloads

Suicidal Angels – Division Of Blood (2016) [Limited Edition, CD+DVD]

Download

Suicidal Angels - Division Of Blood (2016) [Limited Edition, CD+DVD]

Suicidal Angels – Division Of Blood (2016) [Limited Edition, CD+DVD]
EAC Rip | FLAC: Image+Cue+Log | 304 Mb | MP3 CBR 320 kbps | 100 Mb | Scans | 41 Mb | Time: 43:32
DVD5 | Video: PAL 720×576 (16:9) | Audio: Dolby AC3, 2 ch | 2.6 Gb | Scans | Time: 01:16:38
NoiseArt Records | NARCD055DP
Thrash Metal

Rapidly rising in the scene, Greek thrashers Suicidal Angel continue to offer a punishing assault of revivalist thrash that’s allowed them to become one of the main exponents of the scene in general. Despite some minor hiccups here and there don’t really matter much to it in the long run, this one really manages to come off as one of the more impressive and enjoyable efforts in their consistent run of albums which makes this a fine pick for any revivalist thrash aficionado or fan of the bands’ previous work.

Suicidal Angels - Division Of Blood (2016) [Limited Edition, CD+DVD]
Suicidal Angels
Wikipedia | Napal Records | Amazon
Suicidal Angels - Division Of Blood (2016) [Limited Edition, CD+DVD]

CD

01. Capital Of War (04:25)
02. Division Of Blood (05:12)
03. Eternally To Suffer (04:14)
04. Image Of The Serpent (03:00)
05. Set The Cities On Fire (03:20)
06. Front Gate (04:13)
07. Bullet In The Chamber (03:25)
08. Cold Blood Murder (03:21)
09. Of Thy Shall Bring The Light (12:20)

Suicidal Angels - Division Of Blood (2016) [Limited Edition, CD+DVD]

DVD

01. Intro & Divide and Conquer
02. Bloodbath
03. Apokathilosis
04. Reborn in Violence
05. Seed of Evil
06. Morbid Intention to Kill
07. Beggar of Scorn
08. Bleeding Holocaust
09. Moshing Crew

Suicidal Angels - Division Of Blood (2016) [Limited Edition, CD+DVD]
Suicidal Angels - Division Of Blood (2016) [Limited Edition, CD+DVD]

Suicidal Angels - Division Of Blood (2016) [Limited Edition, CD+DVD]
Suicidal Angels - Division Of Blood (2016) [Limited Edition, CD+DVD]
Suicidal Angels - Division Of Blood (2016) [Limited Edition, CD+DVD]

Produced by Nick and Jörg Uken

The Band

• Nick Melissourgos – Vocals, Guitars
• Aggelos Lelikakis – Bass
• Orpheas Tzortzopoulos – Drums
• Gus Drax – Guitars

EAC Log
Exact Audio Copy V1.1 from 23. June 2015

EAC extraction logfile from 8. June 2016, 12:50

Suicidal Angels / Division Of Blood

Used drive : ATAPI iHAS122 W Adapter: 2 ID: 0

Read mode : Secure
Utilize accurate stream : Yes
Defeat audio cache : Yes
Make use of C2 pointers : No

Read offset correction : 48
Overread into Lead-In and Lead-Out : No
Fill up missing offset samples with silence : Yes
Delete leading and trailing silent blocks : No
Null samples used in CRC calculations : Yes
Used interface : Installed external ASPI interface

Used output format : User Defined Encoder
Selected bitrate : 1024 kBit/s
Quality : High
Add ID3 tag : No
Command line compressor : C:Program FilesFLACflac.exe
Additional command line options : -V -8 -T "Date=%year%" -T "Genre=%genre%" -T"COMMENT=Ripped by Ilijan" -8 -V %source%

TOC of the extracted CD

Track | Start | Length | Start sector | End sector
––––––––––––––––––––––––––––-
1 | 0:00.00 | 4:25.21 | 0 | 19895
2 | 4:25.21 | 5:12.16 | 19896 | 43311
3 | 9:37.37 | 4:14.12 | 43312 | 62373
4 | 13:51.49 | 2:59.70 | 62374 | 75868
5 | 16:51.44 | 3:19.74 | 75869 | 90867
6 | 20:11.43 | 4:13.16 | 90868 | 109858
7 | 24:24.59 | 3:25.16 | 109859 | 125249
8 | 27:50.00 | 3:20.64 | 125250 | 140313
9 | 31:10.64 | 12:20.23 | 140314 | 195836

Range status and errors

Selected range

Filename D:ilкоSuicidal Angels – Division Of Blood.wav

Peak level 96.6 %
Extraction speed 3.6 X
Range quality 99.9 %
Test CRC 4D0BE626
Copy CRC 4D0BE626
Copy OK

No errors occurred

AccurateRip summary

Track 1 not present in database
Track 2 not present in database
Track 3 not present in database
Track 4 not present in database
Track 5 not present in database
Track 6 not present in database
Track 7 not present in database
Track 8 not present in database
Track 9 not present in database

None of the tracks are present in the AccurateRip database

End of status report

–– CUETools DB Plugin V2.1.6

[CTDB TOCID: vWkggXFR.wazaUpj9MaDvYJqPoA-] found
Submit result: vWkggXFR.wazaUpj9MaDvYJqPoA- has been confirmed
Track | CTDB Status
1 | (4/4) Accurately ripped
2 | (4/4) Accurately ripped
3 | (4/4) Accurately ripped
4 | (4/4) Accurately ripped
5 | (4/4) Accurately ripped
6 | (4/4) Accurately ripped
7 | (4/4) Accurately ripped
8 | (4/4) Accurately ripped
9 | (4/4) Accurately ripped

==== Log checksum 6A388ADBC7484DFE91951A09AC196F0E472FF66EDA4B29930D2493E558C15BF7 ====

DVDInfo
Enabled regions: 1, 2, 3, 4, 5, 6, 7, 8

VTS_01 :
Play Length: 01:16:38
Video: PAL 16:9 (720×576) VBR, Auto Letterboxed
Audio:
Deutsch (Dolby AC3, 2 ch)

* Menus Information *

VIDEO_TS Menu
Video:
PAL 4:3 (720×576) VBR
English Language Unit :
Title Menu

VTS_01 Menu
Video:
PAL 16:9 (720×576) VBR
Auto Letterboxed
Audio:
Not specified (Dolby AC3, 2 ch)
English Language Unit :
Root Menu

Many thanks to the original uploader: Ilijan

Suicidal Angels – Division Of Blood (2016) [Limited Edition, CD+DVD] Download, Warez, DDL, Free, Full Album, Torrent, Legal.

Download


  • Recent Posts

  • Recent Tags