Styx – Pieces Of Eight (1978) [2017, Audio Fidelity AFZ 265]

Download
Styx - Pieces Of Eight (1978) [2017, Audio Fidelity AFZ 265]

Styx – Pieces Of Eight (1978)
EAC | Flac(Image) + Cue + Log & MP3 CBR 320Kbps
Audio Fidelity AFZ 2658 | ~ 282 or 103 Mb | Scans(png) -> 368 Mb
Progressive Rock / Pop Rock

Styx’s feisty, straightforward brand of album rock is represented best by "Blue Collar Man" from 1978’s Pieces of Eight, an invigorating keyboard and guitar rush – hard and heavy, yet curved by Tommy Shaw’s emphasized vocals. Reaching number 21, with the frolicking romp of "Renegade" edging in at number 16 only six months later, Pieces of Eight maintained their strength as a front-running FM radio group. Even though these two tracks were both mainstream singles, the rest of the album includes tracks that rekindle some of Styx’s early progressive rock sound, only cleaner. Tracks like "Sing for the Day," "Lords of the Ring," and "Aku-Aku" all contain slightly more complex instrumental foundations, and are lyrically reminiscent of the material from albums like The Serpent Is Rising or Man of Miracles, but not as intricate or instrumentally convoluted. While the writing may stray slightly from what Styx provided on The Grand Illusion, Pieces of Eight kept their established rock formula in tact quite firmly.

by Mike DeGagne, allmusic

Styx – Pieces Of Eight (1978):

Styx - Pieces Of Eight (1978) [2017, Audio Fidelity AFZ 265]

Tracklist:

01 Great White Hope
02 I’m O.K.
03 Sing For The Day
04 The Message
05 Lords Of The Ring
06 Blue Collar Man (Long Nights)
07 Queen Of Spades
08 Renegade
09 Pieces Of Eight
10 Aku-Aku

EAC Log
Exact Audio Copy V1.3 from 2. September 2016

EAC extraction logfile from 12. October 2017, 16:22

Styx / Pieces Of Eight AF

Used drive : PLEXTOR BD-R PX-B950SA Adapter: 1 ID: 1

Read mode : Secure
Utilize accurate stream : Yes
Defeat audio cache : Yes
Make use of C2 pointers : No

Read offset correction : 6
Overread into Lead-In and Lead-Out : No
Fill up missing offset samples with silence : Yes
Delete leading and trailing silent blocks : No
Null samples used in CRC calculations : Yes
Used interface : Native Win32 interface for Win NT & 2000

Used output format : Internal WAV Routines
Sample format : 44.100 Hz; 16 Bit; Stereo

TOC of the extracted CD

Track | Start | Length | Start sector | End sector
––––––––––––––––––––––––––––-
1 | 0:00.00 | 4:23.50 | 0 | 19774
2 | 4:23.50 | 5:44.16 | 19775 | 45590
3 | 10:07.66 | 5:00.54 | 45591 | 68144
4 | 15:08.45 | 1:08.38 | 68145 | 73282
5 | 16:17.08 | 4:38.21 | 73283 | 94153
6 | 20:55.29 | 4:07.22 | 94154 | 112700
7 | 25:02.51 | 5:40.64 | 112701 | 138264
8 | 30:43.40 | 4:17.23 | 138265 | 157562
9 | 35:00.63 | 4:43.73 | 157563 | 178860
10 | 39:44.61 | 3:02.60 | 178861 | 192570

Range status and errors

Selected range

Filename C:UsersAlexDesktopALLexxessStyx1978 Pieces Of Eight (Hybrid SACD Audio Fidelity 2017)Styx – Pieces Of Eight AF.wav

Peak level 100.0 %
Extraction speed 7.4 X
Range quality 100.0 %
Test CRC 47ED9412
Copy CRC 47ED9412
Copy OK

No errors occurred

AccurateRip summary

Track 1 not present in database
Track 2 not present in database
Track 3 not present in database
Track 4 not present in database
Track 5 not present in database
Track 6 not present in database
Track 7 not present in database
Track 8 not present in database
Track 9 not present in database
Track 10 not present in database

None of the tracks are present in the AccurateRip database

End of status report

–– CUETools DB Plugin V2.1.6

[CTDB TOCID: ZCkrZLHfRJJ7vlFMJPTi2_KukBA-] found
Submit result: ZCkrZLHfRJJ7vlFMJPTi2_KukBA- has been confirmed
Track | CTDB Status
1 | (11/11) Accurately ripped
2 | (11/11) Accurately ripped
3 | (11/11) Accurately ripped
4 | (11/11) Accurately ripped
5 | (11/11) Accurately ripped
6 | (11/11) Accurately ripped
7 | (11/11) Accurately ripped
8 | (11/11) Accurately ripped
9 | (11/11) Accurately ripped
10 | (11/11) Accurately ripped

==== Log checksum 56E42DE447C96E830AB1B388A624DF6C45F405406808D91BD8B2736198297106 ====

CUETools Log
[CUETools log; Date: 13.10.2017 8:37:43; Version: 2.1.5]
[AccurateRip ID: 00107e4d-00833aa4-840a070a] database access error: Невозможно соединиться с удаленным сервером.

Track Peak [ CRC32 ] [W/O NULL] [ LOG ]
– 100,0 [47ED9412] [523E7033] CRC32
01 95,4 [B05271A2] [042CB09B]
02 91,6 [A46A7507] [8E31C559]
03 92,4 [DE813298] [2000B965]
04 59,1 [072993F1] [08166ECA]
05 97,0 [9C5B9681] [65076E1D]
06 93,9 [8EA6480F] [EC0DBDED]
07 100,0 [B94BDA58] [ABB6C155]
08 83,1 [3BCAA948] [29060EEC]
09 100,0 [64D276B9] [E5B69D3B]
10 50,2 [CC0FB95B] [60FC63DF]

Styx - Pieces Of Eight (1978) [2017, Audio Fidelity AFZ 265]

All thanks go to ALLexxess

Styx or Styx in my Blog

Download Styx – Pieces Of Eight (1978):

Styx – Pieces Of Eight (1978) [2017, Audio Fidelity AFZ 265] Download, Warez, DDL, Free, Full Album, Torrent, Legal.

Download