String Driven Thing – String Driven Thing (1970)

Download
String Driven Thing - String Driven Thing (1970)

String Driven Thing – String Driven Thing (1970)
EAC | Flac(Image) + Cue + Log & MP3 CBR 320Kbps
2008 | Air Mail Archive, AIRAC-1497 | RU | ~ 444 or 188 Mb | Scans(jpg) -> 35 Mb
Progressive Rock, Folk Rock | 14 Bonus Tracks

irst album and a complete unknown from the public since it was released on the Concord album with only 100 copies printed, which makes it one of the more expensive albums around. Fortunately for you, this album has been released in the Cd format in a compilation: The Early Years 68-72. At the time the group consisted of a trio including Scott husband and wife team Pauline and Chris Adams and 12-string guitarist Mannion. Released in 70, this album sank without a trace, but can still be of an interest to progheads even if it sounds quite different of their better-known Machine That Cried album. We have a relatively strange mix of west-coast folk rock (CSNY-type) with classic Moody Blues period intonations and some tracks come with some mellotrons, others with string arrangements. Some acid-folk vocal arrangements can make think of a cross between Spirogyra and TMB. Somehow Genesis’ FGTR’s sound (but poppier) is not that far away in sprit from this album as the overall arrangements can appear to burry the original ideas.
While there are some rather out of place country feels (their West Coast influences), there are many tracks that have quite a bit of charm and although not really progressive per se, they have many endearing qualities to progheads. Not quite essential, but if you are into SDT, you might want to investigate it. The bonus tracks are from home demos (of the future album to come for the most part) and some are of poor quality, but still worth a listen, but overall this is a worthy release of TRC, which is the only correct labels marketed by the SPM/WWR galaxy. For confirmed fans only, though.

by Sean Trane, progarchives

String Driven Thing – String Driven Thing (1970):

String Driven Thing - String Driven Thing (1970)

Tracklist:

01. July Morning
02. Say What You Like
03. Magic Garden
04. Wonderful Places
05. I Don’t Wanna Wake Up
06. City Man
07. Another Night In This City
08. That’s My Lady
09. Catch As Catch Can
10. No More You And I
11. Lie Back And Let It Happen
12. One Of The Lonely People

Bonus Tracks:
13. Someone Else’s City – Home Demo ’67
14. Sometimes I Wish – Home Demo ’67
15. Waiting For The Sky To Fall – Home Demo ’67
16. Magic Garden – Dave Cousins Demo ’69
17. No More You And I – Dave Cousins Demo ’69
18. Say What You Like – Dave Cousins Demo ’69
19. Lie Back And Let It Happen – Dave Cousins Demo ’69
20. Lie Back And Let It Happen – Ironic Jam With Colin Wilson ’70
21. Let Me Down – Home Demo, Chris & Colin ’70
22. Old Love New Love – Studio Demo ’72
23. Jack Diamond – Home Demo ’72
24. Argyle Street – Home Demo ’72
25. Winter Is Coming – Home Demo ’72
26. Regent St. Incident – Home Demo ’72

EAC Log
Exact Audio Copy V1.1 from 23. June 2015

Отчёт EAC об извлечении, выполненном 9. июля 2017, 22:31

String Driven Thing / String Driven Thing

Дисковод: ASUS DRW-24B3ST Adapter: 0 ID: 0

Режим чтения : Достоверность
Использование точного потока : Да
Отключение кэша аудио : Да
Использование указателей C2 : Нет

Коррекция смещения при чтении : 6
Способность читать области Lead-in и Lead-out : Нет
Заполнение пропущенных сэмплов тишиной : Да
Удаление блоков с тишиной в начале и конце : Нет
При вычислениях CRC использовались нулевые сэмплы : Да
Интерфейс : Установленный внешний ASPI-интерфейс

Выходной формат : Пользовательский кодировщик
Выбранный битрейт : 1024 kBit/s
Качество : Высокий
Добавление ID3-тега : Нет
Утилита сжатия : C:Program Files (x86)Exact Audio CopyFlacflac.exe
Дополнительные параметры : -V -8 -T "Date=%year%" -T "Genre=%genre%" %source%

TOC извлечённого CD

Трек | Старт | Длительность | Начальный сектор | Конечный сектор
––––––––––––––––––––––––––––––––––-
1 | 0:00.00 | 2:20.23 | 0 | 10522
2 | 2:20.23 | 2:33.34 | 10523 | 22031
3 | 4:53.57 | 3:00.23 | 22032 | 35554
4 | 7:54.05 | 2:52.49 | 35555 | 48503
5 | 10:46.54 | 2:49.41 | 48504 | 61219
6 | 13:36.20 | 2:56.40 | 61220 | 74459
7 | 16:32.60 | 2:58.22 | 74460 | 87831
8 | 19:31.07 | 2:43.20 | 87832 | 100076
9 | 22:14.27 | 3:32.42 | 100077 | 116018
10 | 25:46.69 | 2:28.66 | 116019 | 127184
11 | 28:15.60 | 3:16.56 | 127185 | 141940
12 | 31:32.41 | 4:40.25 | 141941 | 162965
13 | 36:12.66 | 2:21.58 | 162966 | 173598
14 | 38:34.49 | 2:32.29 | 173599 | 185027
15 | 41:07.03 | 2:50.02 | 185028 | 197779
16 | 43:57.05 | 2:52.72 | 197780 | 210751
17 | 46:50.02 | 2:35.61 | 210752 | 222437
18 | 49:25.63 | 1:36.72 | 222438 | 229709
19 | 51:02.60 | 3:25.60 | 229710 | 245144
20 | 54:28.45 | 2:57.73 | 245145 | 258492
21 | 57:26.43 | 2:34.14 | 258493 | 270056
22 | 60:00.57 | 3:26.15 | 270057 | 285521
23 | 63:26.72 | 3:53.46 | 285522 | 303042
24 | 67:20.43 | 3:51.65 | 303043 | 320432
25 | 71:12.33 | 4:04.52 | 320433 | 338784
26 | 75:17.10 | 4:05.09 | 338785 | 357168

Характеристики диапазона извлечения и сообщения об ошибках

Выбранный диапазон

Имя файла E:TorrentsString Driven Thing – 1970 – String Driven ThingString Driven Thing – String Driven Thing.wav

Пиковый уровень 97.2 %
Скорость извлечения 3.7 X
Качество диапазона 100.0 %
CRC теста 52817B82
CRC копии 52817B82
Копирование… OK

Ошибок не произошло

AccurateRip: сводка

Трек 1 точность не определена (достоверность 1) [3FC871D9], AccurateRip вернул [AD9C7F62] (AR v2)
Трек 2 точность не определена (достоверность 1) [7C686224], AccurateRip вернул [64F548E8] (AR v2)
Трек 3 точность не определена (достоверность 1) [FB1EABE3], AccurateRip вернул [73DC093E] (AR v2)
Трек 4 точность не определена (достоверность 1) [537BFAB2], AccurateRip вернул [A2FBA4E6] (AR v2)
Трек 5 точность не определена (достоверность 1) [7BCFB5C2], AccurateRip вернул [89D4D81C] (AR v2)
Трек 6 точность не определена (достоверность 1) [F946A179], AccurateRip вернул [8DE700EE] (AR v2)
Трек 7 точность не определена (достоверность 1) [04D647A4], AccurateRip вернул [121B1D89] (AR v2)
Трек 8 точность не определена (достоверность 1) [9E58852C], AccurateRip вернул [CD62135E] (AR v2)
Трек 9 точность не определена (достоверность 1) [9C5D2091], AccurateRip вернул [3E94F281] (AR v2)
Трек 10 точность не определена (достоверность 1) [88822D9C], AccurateRip вернул [E2A411A9] (AR v2)
Трек 11 точность не определена (достоверность 1) [1B5C6E63], AccurateRip вернул [756982CE] (AR v2)
Трек 12 точность не определена (достоверность 1) [DB15EC48], AccurateRip вернул [FF5E1B33] (AR v2)
Трек 13 точность не определена (достоверность 1) [0BEFEA2D], AccurateRip вернул [14A8C162] (AR v2)
Трек 14 точность не определена (достоверность 1) [3FB247BB], AccurateRip вернул [9FCB1F13] (AR v2)
Трек 15 точность не определена (достоверность 1) [64BB8835], AccurateRip вернул [FC019BAC] (AR v2)
Трек 16 точность не определена (достоверность 1) [1DDEF4A1], AccurateRip вернул [CFD3F1FE] (AR v2)
Трек 17 точность не определена (достоверность 1) [0E36C795], AccurateRip вернул [46E79F9B] (AR v2)
Трек 18 точность не определена (достоверность 1) [FAEF2842], AccurateRip вернул [0A71D05D] (AR v2)
Трек 19 точность не определена (достоверность 1) [D4174DFD], AccurateRip вернул [7BA61126] (AR v2)
Трек 20 точность не определена (достоверность 1) [97598CEC], AccurateRip вернул [57D586CD] (AR v2)
Трек 21 точность не определена (достоверность 1) [6931CEFB], AccurateRip вернул [C8CE4280] (AR v2)
Трек 22 точность не определена (достоверность 1) [BAA56742], AccurateRip вернул [B83C7095] (AR v2)
Трек 23 точность не определена (достоверность 1) [3BFD8B66], AccurateRip вернул [8DE440AF] (AR v2)
Трек 24 точность не определена (достоверность 1) [D2E8DF83], AccurateRip вернул [1612A43B] (AR v2)
Трек 25 точность не определена (достоверность 1) [BFB045DB], AccurateRip вернул [A7347B78] (AR v2)
Трек 26 точность не определена (достоверность 1) [7CFFD041], AccurateRip вернул [60746B4C] (AR v2)

Ни один трек не прошёл проверки на точность
В вашей базе может быть иной вариант штамповки диска

Конец отчёта

==== Контрольная сумма отчёта AF6050033946FD9DE523B334075B686D19B8ACC82296E0201162B28144FF7378 ====

DR Log
foobar2000 1.2.9 / Dynamic Range Meter 1.1.1
log date: 2017-07-10 02:52:37

––––––––––––––––––––––––––––––––––––––––
Analyzed: String Driven Thing / String Driven Thing
––––––––––––––––––––––––––––––––––––––––

DR Peak RMS Duration Track
––––––––––––––––––––––––––––––––––––––––
DR10 -0.93 dB -12.37 dB 2:20 01-July Morning
DR10 -0.90 dB -13.19 dB 2:33 02-Say What You Like
DR9 -0.37 dB -11.65 dB 3:00 03-Magic Garden
DR10 -0.46 dB -12.61 dB 2:53 04-Wonderful Places
DR10 -0.25 dB -11.87 dB 2:50 05-I Don’t Wanna Wake Up
DR9 -1.40 dB -12.53 dB 2:57 06-City Man
DR10 -0.27 dB -12.11 dB 2:58 07-Another Night In This Old City
DR10 -0.24 dB -13.20 dB 2:43 08-That’s My Lady
DR10 -0.82 dB -12.87 dB 3:33 09-Catch As Catch Can
DR9 -0.50 dB -12.98 dB 2:29 10-No More You And I
DR10 -0.41 dB -12.27 dB 3:17 11-Lie Back And Let It Happen
DR9 -0.73 dB -11.87 dB 4:40 12-One Of The Lonely People
DR8 -3.66 dB -13.17 dB 2:22 13-Someone Else’s City [1967]
DR9 -3.82 dB -15.72 dB 2:32 14-Sometimes I Wish [1967]
DR7 -4.11 dB -12.13 dB 2:50 15-Waiting For The Sky To Fall [1967]
DR8 -3.68 dB -13.72 dB 2:53 16-Magic Garden [1968]
DR9 -4.16 dB -14.87 dB 2:36 17-No More You And [1969]
DR9 -3.83 dB -14.51 dB 1:37 18-Say What You Like [1969]
DR8 -4.40 dB -14.09 dB 3:26 19-Lie Back And Let It Happen [1969]
DR9 -3.80 dB -16.77 dB 2:58 20-Lie Back And Let It Happen [1970]
DR7 -3.82 dB -12.17 dB 2:34 21-Let Me Down [1970]
DR7 -3.55 dB -11.63 dB 3:26 22-Old Love, New Love [1971]
DR8 -4.12 dB -13.79 dB 3:54 23-Jack Diamond [1972]
DR6 -4.12 dB -13.67 dB 3:52 24-Argyle Street [1972]
DR8 -3.78 dB -15.90 dB 4:05 25-Winter Is Coming [1972]
DR6 -4.51 dB -13.18 dB 4:05 26-Rehent St. Incident Incident [1972]
––––––––––––––––––––––––––––––––––––––––

Number of tracks: 26
Official DR value: DR9

Samplerate: 44100 Hz
Channels: 2
Bits per sample: 16
Bitrate: 759 kbps
Codec: FLAC

CUETools Log
[CUETools log; Date: 10.07.2017 2:16:29; Version: 2.1.4]
[CTDB TOCID: UfZ9hmPrtjABmdiih2xlQi4C10M-] disk not present in database.
[AccurateRip ID: 0045fb1c-0523f162-9c129a1a] found.
Track [ CRC | V2 ] Status
01 [c821444f|3fc871d9] (0+0/2) No match
02 [78ece00a|7c686224] (0+0/2) No match
03 [40102bd7|fb1eabe3] (0+0/2) No match
04 [719c93d3|537bfab2] (0+0/2) No match
05 [824e40cb|7bcfb5c2] (0+0/2) No match
06 [275b2a84|f946a179] (0+0/2) No match
07 [63944699|04d647a4] (0+0/2) No match
08 [a9291619|9e58852c] (0+0/2) No match
09 [8455494f|9c5d2091] (0+0/2) No match
10 [83c57402|88822d9c] (0+0/2) No match
11 [d15ae612|1b5c6e63] (0+0/2) No match
12 [75affab1|db15ec48] (0+0/2) No match
13 [3cc93738|0befea2d] (0+0/2) No match
14 [e1d1586c|3fb247bb] (0+0/2) No match
15 [8bb6c592|64bb8835] (0+0/2) No match
16 [e90961f1|1ddef4a1] (0+0/2) No match
17 [77205214|0e36c795] (0+0/2) No match
18 [0b81adfd|faef2842] (0+0/2) No match
19 [7c0cd455|d4174dfd] (0+0/2) No match
20 [b64352fd|97598cec] (0+0/2) No match
21 [9e3f8a22|6931cefb] (0+0/2) No match
22 [46215f65|baa56742] (0+0/2) No match
23 [d068e803|3bfd8b66] (0+0/2) No match
24 [5b781b3f|d2e8df83] (0+0/2) No match
25 [cba44f61|bfb045db] (0+0/2) No match
26 [3e837aa5|7cffd041] (0+0/2) No match
Offsetted by 486:
01 [0e0ee5f2] (0/2) No match
02 [92b8b655] (0/2) No match
03 [e7a21bdc] (0/2) No match
04 [a81dc5c6] (0/2) No match
05 [e8108924] (0/2) No match
06 [e9102f0b] (0/2) No match
07 [dc3250af] (0/2) No match
08 [6bdaff49] (0/2) No match
09 [a3ead7ba] (0/2) No match
10 [f8337298] (0/2) No match
11 [0d454742] (0/2) No match
12 [11494e31] (0/2) No match
13 [398c6bb7] (0/2) No match
14 [74142e7a] (0/2) No match
15 [58653567] (0/2) No match
16 [5787b162] (0/2) No match
17 [193d84b1] (0/2) No match
18 [382f73f7] (0/2) No match
19 [acaad48e] (0/2) No match
20 [2445d76c] (0/2) No match (V2 was not tested)
21 [146afd6c] (0/2) No match
22 [9c80ae8c] (0/2) No match
23 [1332afba] (0/2) No match
24 [49f9b920] (0/2) No match
25 [e72c4461] (0/2) No match
26 [9feb3c0a] (0/2) No match
Offsetted by 492:
01 [ad9c7f62] (1/2) Accurately ripped
02 [64f548e8] (1/2) Accurately ripped
03 [73dc093e] (1/2) Accurately ripped
04 [a2fba4e6] (1/2) Accurately ripped
05 [89d4d81c] (1/2) Accurately ripped
06 [8de700ee] (1/2) Accurately ripped
07 [121b1d89] (1/2) Accurately ripped
08 [cd62135e] (1/2) Accurately ripped
09 [3e94f281] (1/2) Accurately ripped
10 [e2a411a9] (1/2) Accurately ripped
11 [756982ce] (1/2) Accurately ripped
12 [ff5e1b33] (1/2) Accurately ripped
13 [14a8c162] (1/2) Accurately ripped
14 [9fcb1f13] (1/2) Accurately ripped
15 [fc019bac] (1/2) Accurately ripped
16 [cfd3f1fe] (1/2) Accurately ripped
17 [46e79f9b] (1/2) Accurately ripped
18 [0a71d05d] (1/2) Accurately ripped
19 [1a89475e] (0/2) No match (V2 was not tested)
20 [f64ff35f] (0/2) No match
21 [c8ce4280] (1/2) Accurately ripped
22 [b83c7095] (1/2) Accurately ripped
23 [8de440af] (1/2) Accurately ripped
24 [1612a43b] (1/2) Accurately ripped
25 [a7347b78] (1/2) Accurately ripped
26 [60746b4c] (1/2) Accurately ripped

Track Peak [ CRC32 ] [W/O NULL] [ LOG ]
– 97,2 [52817B82] [BEE3171D] CRC32
01 89,8 [494A0E3A] [CCBD6C4F]
02 90,1 [C74FF9C4] [8007C249]
03 95,8 [87C5110B] [90B7E0F5]
04 94,8 [D06285FE] [6B4FFC26]
05 97,1 [C505B538] [4B68EC15]
06 85,1 [692B37BA] [A0D1FE4A]
07 96,9 [28DB5264] [E076FDCF]
08 97,2 [68CB7020] [F3C5EFA3]
09 91,0 [0C405452] [72EB3CF9]
10 94,4 [87F6FEFE] [674BE328]
11 95,3 [3DF2611C] [837691D2]
12 91,8 [80F4BC47] [F9525725]
13 65,5 [373230BD] [BD15A994]
14 64,3 [409D4647] [F7CAECC5]
15 62,2 [AEB0B905] [2C4BC4D6]
16 65,4 [CE6588BB] [26691244]
17 61,9 [270C3A05] [D46BFECC]
18 64,3 [6439C739] [91207D78]
19 60,2 [D1C6BBDA] [E26A3FDD]
20 64,5 [FAEB0B4A] [BCE7AAEF]
21 64,4 [DA780BDD] [5447051A]
22 66,4 [AD9EC2AB] [86E3CDB5]
23 62,2 [1CB1C7E3] [3D83CB78]
24 62,1 [0DE5FE9B] [373F3DEF]
25 64,7 [0BC16BE4] [837817C1]
26 59,4 [D79C4D8F] [EC13AC1C]

String Driven Thing - String Driven Thing (1970)

All thanks go to Копысов

Download String Driven Thing – String Driven Thing (1970):

String Driven Thing – String Driven Thing (1970) Download, Warez, DDL, Free, Full Album, Torrent, Legal.

Download