Street Credentials (2006) **[RE-UP]**

Download
Street Credentials (2006) **[RE-UP]**

Street Credentials (2006)
DVD rip | AVI: OpenDM (720 x 480, 2499 Kbps) | Audio: MP3 (320 Kbps) | 53 min | English | 1.03 gb
Genre: documentary, hip-hop, rap

Street Credentials is a hip-hop documentary released in 2006. Also known as Hip-Hop Street Credentials, this film was directed by Tony Samuel & Israel Vasquetelle and features interviews with Kool Keith, Saul Williams, Kutmasta Kurt, Aesop Rock and many others.

Street Credentials (2006) **[RE-UP]**
MediaInfo (LOG)
General
Complete name : E:FLACAAA 2017VidsStreet

CredentialsStreet Credentials (53 min).avi
Format : AVI
Format/Info : Audio Video Interleave
Format profile : OpenDML
File size : 1.05 GiB
Duration : 53mn 2s
Overall bit rate : 2 837 Kbps
Writing application : Lavf51.12.1

Video
ID : 0
Format : MPEG-4 Visual
Format profile : Simple@L1
Format settings, BVOP : No
Format settings, QPel : No
Format settings, GMC : No warppoints
Format settings, Matrix : Default (H.263)
Codec ID : DX50
Codec ID/Hint : DivX 5
Duration : 53mn 2s
Bit rate : 2 499 Kbps
Width : 720 pixels
Height : 480 pixels
Display aspect ratio : 3:2
Frame rate : 29.970 fps
Standard : NTSC
Color space : YUV
Chroma subsampling : 4:2:0
Bit depth : 8 bits
Scan type : Progressive
Compression mode : Lossy
Bits/(Pixel*Frame) : 0.241
Stream size : 948 MiB (88%)
Writing library : Lavc51.40.4

Audio
ID : 1
Format : MPEG Audio
Format version : Version 1
Format profile : Layer 3
Mode : Joint stereo
Mode extension : MS Stereo
Codec ID : 55
Codec ID/Hint : MP3
Duration : 53mn 2s
Bit rate mode : Constant
Bit rate : 320 Kbps
Channel(s) : 2 channels
Sampling rate : 48.0 KHz
Compression mode : Lossy
Stream size : 121 MiB (11%)
Alignment : Aligned on interleaves
Interleave, duration : 24 ms (0.72 video frame)
Writing library : LAME3.97

Street Credentials (2006) **[RE-UP]**

IMDB.com

Street Credentials (2006) **[RE-UP]** Download, Warez, DDL, Free, Full Album, Torrent, Legal.

Download