Stray – Suicide (1971) [Reissue 2006]

Download
Stray - Suicide (1971) [Reissue 2006]

Stray – Suicide (1971) [Reissue 2006]
EAC Rip | FLAC (image+.cue+log) – 220 MB | MP3 CBR 320 kbps (LAME 3.93) – 101 MB | Covers (8 MB) included
Genre: Progressive/Psychedelic Rock, Hard Rock | RAR 3% Rec. | Label: Strange Days Records (POCE-1065)

London’s Stray followed up an eclectic eponymous debut with more of the same on their 1971 sophomore effort, "Suicide", which of course was just dandy since "more of the same" on this occasion essentially entailed another imaginative melding of different musical genres under the broad, forgiving definition afforded by the progressive rock tag. As to the album’s rather negative title, it didn’t foreshadow a radical shift toward the quartet’s pre-existing heavy rock tendencies (actually, more keyboards were the hot novelty here) so much as a reflection of these songs’ darker overall mood when it came to their lyrics. Opener "Son of the Father" offered a perfect example, as it alternated quiet passages of sublime but chilling beauty with other hard-driving but rather upbeat sections – all supporting questioning meditations about generations of men sent off to war after war. Some ensuing tracks, like "Nature’s Way" and "Do You Miss Me?" continue to showcase Stray’s copious testosterone via wicked power chords and boogie grooves (but always interlaced with some unexpected jam or jazzy accent), and the especially forceful "Jericho" catapults untold scores of contrasting riffs against one another with urgent intensity, ultimately culminating in a truly frightening descending riff sequence. Other songs take the opposite course of gentle introspection, achieving both mesmerizing (the lyrically corny but musically elegiac "Where Do Our Children Belong") and dismaying results (the soppy, string-laden Muzak of "Dearest Eloise"), while the neither-here-nor-there "Run Mister Run" evokes a Southern rock feel with its cow bells and blue-collar construction. And, finally, there’s the controversially themed title track, which combines a Black Sabbath-like bass progression from Gary G. Giles with foreboding fuzz chords and sizzling solo licks from Del Bromham (reminiscent of Sir Lord Baltimore) to impart its gloomy story. Not a very uplifting finale, obviously, but nothing that detracts from Suicide’s multi-faceted creative accomplishment, under any circumstance – especially considering the album was reportedly recorded at Olympic Studios in just 30 hours!

Tracklist:
01. Son Of The Father
02. Nature’s Way
03. Where Do Our Children Belong
04. Jericho
05. Run Mister Run
06. Dearest Eloise
07. Do You Miss Me?
08. Suicide
09. Encore (Bonus track)

Total time: 39:31

EAC log
Exact Audio Copy V0.99 prebeta 5 from 4. May 2009

EAC extraction logfile from 5. August 2009, 20:40

Stray / Suicide

Used drive : Optiarc DVD RW AD-7191S Adapter: 5 ID: 0

Read mode : Secure
Utilize accurate stream : Yes
Defeat audio cache : Yes
Make use of C2 pointers : No

Read offset correction : 6
Overread into Lead-In and Lead-Out : No
Fill up missing offset samples with silence : Yes
Delete leading and trailing silent blocks : No
Null samples used in CRC calculations : Yes
Used interface : Native Win32 interface for Win NT & 2000

Used output format : Internal WAV Routines
Sample format : 44.100 Hz; 16 Bit; Stereo

TOC of the extracted CD

Track | Start | Length | Start sector | End sector
––––––––––––––––––––––––––––-
1 | 0:00.00 | 5:50.59 | 0 | 26308
2 | 5:50.59 | 3:32.13 | 26309 | 42221
3 | 9:22.72 | 3:41.60 | 42222 | 58856
4 | 13:04.57 | 4:57.37 | 58857 | 81168
5 | 18:02.19 | 3:54.07 | 81169 | 98725
6 | 21:56.26 | 2:33.00 | 98726 | 110200
7 | 24:29.26 | 6:31.64 | 110201 | 139589
8 | 31:01.15 | 7:49.25 | 139590 | 174789
9 | 38:50.40 | 0:40.04 | 174790 | 177793

Range status and errors

Selected range

Filename D:StraySuicideSuicide.wav

Peak level 96.6 %
Range quality 100.0 %
Copy CRC 7550DDC5
Copy OK

No errors occurred

AccurateRip summary

Track 1 not present in database
Track 2 not present in database
Track 3 not present in database
Track 4 not present in database
Track 5 not present in database
Track 6 not present in database
Track 7 not present in database
Track 8 not present in database
Track 9 not present in database

None of the tracks are present in the AccurateRip database

End of status report

CUETools log
[CUETools log; Date: 29.07.2017 16:52:59; Version: 2.1.4]
[CTDB TOCID: HSXPDb0BFgCx64Y44EP9vh82rq4-] found.
Track | CTDB Status
1 | (1/1) Accurately ripped
2 | (1/1) Accurately ripped
3 | (1/1) Accurately ripped
4 | (1/1) Accurately ripped
5 | (1/1) Accurately ripped
6 | (1/1) Accurately ripped
7 | (1/1) Accurately ripped
8 | (1/1) Accurately ripped
9 | (1/1) Accurately ripped
[AccurateRip ID: 000de15a-006580bb-73094209] found.
Track [ CRC | V2 ] Status
01 [2266bc90|fb9772aa] (3+2/5) Accurately ripped
02 [2532e58c|eadfeb04] (3+2/5) Accurately ripped
03 [7cb9e228|a5b6ed4a] (3+2/5) Accurately ripped
04 [57ad973e|d48fabaa] (3+2/5) Accurately ripped
05 [9c922839|ba3266e6] (3+2/5) Accurately ripped
06 [03f48197|3dcdc5a0] (3+2/5) Accurately ripped
07 [318bebb6|272112b2] (3+2/5) Accurately ripped
08 [ae3950ce|4f65bf8d] (3+2/5) Accurately ripped
09 [1c49cbd2|3db47bce] (3+2/5) Accurately ripped

Track Peak [ CRC32 ] [W/O NULL] [ LOG ]
– 96,6 [7550DDC5] [3B0E0EAE] CRC32
01 96,6 [3CB621F4] [90D315EA]
02 96,6 [82C8DA22] [83A000C8]
03 96,6 [4E15F60B] [5D67694F]
04 96,6 [81E4032A] [0FDC598A]
05 96,6 [5AC6B472] [697DF29B]
06 96,6 [ACDAC4FA] [EEA17E34]
07 96,6 [B6D7C568] [38EFE439]
08 96,6 [6FB1ACE0] [50379127]
09 64,7 [76982F21] [0C28B772]

Thanks to hawkwood

Welcome to My Blog!

Stray – Suicide (1971) [Reissue 2006] Download, Warez, DDL, Free, Full Album, Torrent, Legal.

Download