Stevie Nicks – Bella Donna (1981) | ViralVideoPk

Daily Dose of Free Downloads

Stevie Nicks – Bella Donna (1981)

Download

Stevie Nicks - Bella Donna (1981)

Stevie Nicks – Bella Donna (1981)
EAC | Flac(Image) + Cue + Log & MP3 CBR 320Kbps
1990 | Modern Records, 38139-2 | ~ 261 or 106 Mb | Scans Included
Pop Rock

Stevie Nicks’ solo career was off to an impressive, if overdue, start with Bella Donna, which left no doubt that she could function quite well without the input of her colleagues in Fleetwood Mac. The album yielded a number of hits that seemed omnipresent in the ’80s, including the moving "Leather and Lace" (which unites Nicks with Don Henley), the poetic "Edge of Seventeen," and her rootsy duet with Tom Petty, "Stop Draggin’ My Heart Around." But equally engaging are less exposed tracks like the haunting "After the Glitter Fades." Hit producer Jimmy Iovine wisely avoids over-producing, and keeps things sounding organic on this striking debut.

by Alex Henderson, allmusic

Stevie Nicks - Bella Donna (1981)

Fleetwood Mac at Wiki | Fleetwood Mac at Discogs | Fleetwood Mac at Allmusic | Fleetwood Mac HomePage

***********

Stevie Nicks – Bella Donna (1981):

Stevie Nicks - Bella Donna (1981)

Tracklist:

01. Bella Donna [05:21]
02. Kind Of Woman [03:12]
03. Stop Draggin’ My Heart Around [04:04]
04. Think About It [03:35]
05. After The Glitter Fades [03:31]
06. Edge Of Seventeen [05:28]
07. How Still My Love [03:54]
08. Leather And Lace [03:44]
09. Outside The Rain [04:18]
10. The Highwayman [04:50]

EAC Log
Exact Audio Copy V0.99 prebeta 5 from 4. May 2009

EAC extraction logfile from 18. February 2015, 10:48

STEVIE NICKS / Bella Donna ( 38139-2 )

Used drive : ASUS DRW-24B3ST Adapter: 1 ID: 0

Read mode : Secure
Utilize accurate stream : Yes
Defeat audio cache : Yes
Make use of C2 pointers : No

Read offset correction : 6
Overread into Lead-In and Lead-Out : No
Fill up missing offset samples with silence : Yes
Delete leading and trailing silent blocks : No
Null samples used in CRC calculations : Yes
Used interface : Native Win32 interface for Win NT & 2000

Used output format : User Defined Encoder
Selected bitrate : 1024 kBit/s
Quality : High
Add ID3 tag : No
Command line compressor : C:Program Files (x86)EACWVwavpack.exe
Additional command line options : -h -hh -m %s %d

TOC of the extracted CD

Track | Start | Length | Start sector | End sector
––––––––––––––––––––––––––––-
1 | 0:00.32 | 5:21.48 | 32 | 24154
2 | 5:22.05 | 3:12.25 | 24155 | 38579
3 | 8:34.30 | 4:04.52 | 38580 | 56931
4 | 12:39.07 | 3:35.45 | 56932 | 73101
5 | 16:14.52 | 3:31.38 | 73102 | 88964
6 | 19:46.15 | 5:28.27 | 88965 | 113591
7 | 25:14.42 | 3:54.18 | 113592 | 131159
8 | 29:08.60 | 3:44.70 | 131160 | 148029
9 | 32:53.55 | 4:18.52 | 148030 | 167431
10 | 37:12.32 | 4:50.70 | 167432 | 189251

Range status and errors

Selected range

Filename G:FLEETWOOD MAC1981- Stevie Nicks- Bella Donna (US 1990 Modern Records • 38139-2)STEVIE NICKS – Bella Donna ( 38139-2 ).wav

Peak level 100.0 %
Range quality 99.8 %
Test CRC 849AFED5
Copy CRC 849AFED5
Copy OK

No errors occurred

AccurateRip summary

Track 1 accurately ripped (confidence 23) [029B1891]
Track 2 accurately ripped (confidence 25) [B43D95E8]
Track 3 accurately ripped (confidence 23) [CB43599E]
Track 4 accurately ripped (confidence 25) [57438488]
Track 5 accurately ripped (confidence 25) [9A99BD39]
Track 6 accurately ripped (confidence 25) [66A2A402]
Track 7 accurately ripped (confidence 24) [0545EEB0]
Track 8 accurately ripped (confidence 23) [58A37806]
Track 9 accurately ripped (confidence 24) [84441CC3]
Track 10 accurately ripped (confidence 24) [5624BFA7]

All tracks accurately ripped

End of status report

DR Log
foobar2000 1.2.9 / Dynamic Range Meter 1.1.1
log date: 2016-12-31 21:06:27

––––––––––––––––––––––––––––––––––––––––
Analyzed: STEVIE NICKS / Bella Donna ( 38139-2 )
––––––––––––––––––––––––––––––––––––––––

DR Peak RMS Duration Track
––––––––––––––––––––––––––––––––––––––––
DR13 -0.40 dB -16.56 dB 5:22 01-Bella Donna
DR14 -1.00 dB -18.45 dB 3:12 02-Kind Of Woman
DR14 -0.05 dB -17.19 dB 4:05 03-Stop Draggin’ My Heart Around
DR13 -0.60 dB -15.73 dB 3:36 04-Think About It
DR13 -0.23 dB -16.99 dB 3:32 05-After The Glitter Fades
DR13 -1.22 dB -17.55 dB 5:28 06-Edge Of Seventeen
DR14 -0.50 dB -19.13 dB 3:54 07-How Still My Love
DR13 -1.36 dB -17.57 dB 3:45 08-Leather And Lace
DR13 0.00 dB -16.25 dB 4:19 09-Outside The Rain
DR13 -1.50 dB -18.86 dB 4:51 10-The Highwayman
––––––––––––––––––––––––––––––––––––––––

Number of tracks: 10
Official DR value: DR13

Samplerate: 44100 Hz
Channels: 2
Bits per sample: 16
Bitrate: 821 kbps
Codec: FLAC

CUETools Log
[CUETools log; Date: 31.12.2016 21:06:21; Version: 2.1.4]
Pregap length 00:00:32.
[CTDB TOCID: 7_F.BGOz1.qmeQmfSoHB8EFENGg-] found.
Track | CTDB Status
1 | (165/171) Accurately ripped
2 | (169/171) Accurately ripped
3 | (166/171) Accurately ripped
4 | (168/171) Accurately ripped
5 | (160/171) Accurately ripped, or (8/171) differs in 381 samples @03:03:23,03:06:28-03:06:32,03:08:13-03:08:23,03:09:35-03:09:39
6 | (168/171) Accurately ripped
7 | (167/171) Accurately ripped
8 | (169/171) Accurately ripped
9 | (168/171) Accurately ripped
10 | (164/171) Accurately ripped
[AccurateRip ID: 000fbc40-007d7c98-8809db0a] found.
Track [ CRC | V2 ] Status
01 [029b1891|a590e60f] (023+024/348) Accurately ripped
02 [b43d95e8|c494f26e] (025+024/355) Accurately ripped
03 [cb43599e|e36eb7e4] (023+024/359) Accurately ripped
04 [57438488|ef5cc495] (025+024/350) Accurately ripped
05 [9a99bd39|1f64bf11] (025+024/349) Accurately ripped
06 [66a2a402|9e6c8d18] (025+024/358) Accurately ripped
07 [0545eeb0|0126e6d4] (024+024/352) Accurately ripped
08 [58a37806|575f09a5] (023+024/359) Accurately ripped
09 [84441cc3|d1cb67f6] (024+023/354) Accurately ripped
10 [5624bfa7|76b9297e] (024+022/341) Accurately ripped
Offsetted by -1303:
01 [806934eb] (023/348) Accurately ripped
02 [a6ff7adb] (022/355) Accurately ripped
03 [4877376f] (024/359) Accurately ripped
04 [7f04cde6] (022/350) Accurately ripped
05 [02e93ad3] (020/349) Accurately ripped
06 [bd03006f] (024/358) Accurately ripped
07 [eca9c65a] (022/352) Accurately ripped
08 [a6cb5634] (023/359) Accurately ripped
09 [5fb24b81] (023/354) Accurately ripped
10 [24fd3901] (023/341) Accurately ripped
Offsetted by -851:
01 [98bfab93] (015/348) Accurately ripped
02 [8d239007] (018/355) Accurately ripped
03 [1f9689d3] (017/359) Accurately ripped
04 [821fdd1e] (017/350) Accurately ripped
05 [9f769e7b] (018/349) Accurately ripped
06 [033f7cc3] (018/358) Accurately ripped
07 [c3e2e442] (018/352) Accurately ripped
08 [a27922ac] (018/359) Accurately ripped
09 [dc90fc39] (018/354) Accurately ripped
10 [9a8a0af4] (017/341) Accurately ripped
Offsetted by -516:
01 [2f514f69] (056/348) Accurately ripped
02 [1ec9a1fc] (057/355) Accurately ripped
03 [12d95cfa] (058/359) Accurately ripped
04 [a9ce89d0] (056/350) Accurately ripped
05 [05553711] (057/349) Accurately ripped
06 [4a8f6e6e] (060/358) Accurately ripped
07 [7a0dca48] (056/352) Accurately ripped
08 [c5c8ac0e] (059/359) Accurately ripped
09 [c623e88b] (058/354) Accurately ripped
10 [ac27a6a4] (054/341) Accurately ripped
Offsetted by -1395:
01 [e3ab6e53] (000/348) No match (V2 was not tested)
02 [3afcaaa7] (000/355) No match (V2 was not tested)
03 [a49be2b3] (000/359) No match (V2 was not tested)
04 [5a238b5e] (000/350) No match (V2 was not tested)
05 [5d61f93b] (000/349) No match (V2 was not tested)
06 [e99e5623] (000/358) No match (V2 was not tested)
07 [c9eb2d02] (000/352) No match (V2 was not tested)
08 [1d7aa6ec] (000/359) No match (V2 was not tested)
09 [31e41e79] (000/354) No match (V2 was not tested)
10 [ba2c30f4] (000/341) No match (V2 was not tested)
Offsetted by -1304:
01 [817d67a1] (008/348) Accurately ripped
02 [60423b60] (008/355) Accurately ripped
03 [1cf20cc6] (008/359) Accurately ripped
04 [e85b6638] (008/350) Accurately ripped
05 [4f065e49] (000/349) No match (V2 was not tested)
06 [21aba58a] (008/358) Accurately ripped
07 [71d9ca40] (008/352) Accurately ripped
08 [706ea236] (008/359) Accurately ripped
09 [32ad4573] (008/354) Accurately ripped
10 [55eab5ce] (009/341) Accurately ripped

Track Peak [ CRC32 ] [W/O NULL] [ LOG ]
– 100,0 [849AFED5] [2D8E6B5E] CRC32
01 95,5 [D89F6B5D] [11A88FB3]
02 89,1 [7FC97494] [ADD901BF]
03 99,4 [27CF8EB0] [5EC7BA5B]
04 93,3 [3243F8E5] [7C0F69A1]
05 97,4 [97C1D3B4] [BF44C451]
06 86,8 [81F7A664] [0435C75F]
07 94,4 [DE690D01] [53C75791]
08 85,4 [9E7DFFFC] [3CFFC78A]
09 100,0 [31BFEB46] [0D657C8C]
10 84,1 [0A18708E] [85FA1E31]

Stevie Nicks - Bella Donna (1981)

All thanks go to the original releaser

Fleetwood Mac in my Blog

Download Stevie Nicks – Bella Donna (1981):

Stevie Nicks – Bella Donna (1981) Download, Warez, DDL, Free, Full Album, Torrent, Legal.

Download


  • Recent Posts

  • Recent Tags