Steve Reich – The ECM Recordings (2016)

Download
Steve Reich - The ECM Recordings (2016)

Steve Reich – The ECM Recordings
Classical | FLAC (tracks)+cue, log, artwork | 134:54 min | 864 MB
Label: ECM New Series | Tracks: 06 | Rls.date: 2016

Steve Reich has been described by The Guardian as one of “a handful of living composers who can legitimately claim to have altered the direction of musical history" and as “the greatest musical thinker of our time” by The New Yorker. Reich celebrates his 80th birthday on 3 October 2016, and ‘The ECM Recordings’ brings together the landmark albums ‘Music for 18 Musicians’, ‘Octet/Music for a Large Ensemble/Violin Phase’ and ‘Tehillim’ in a limited edition set to mark the occasion. Reich himself plays percussion on both ‘Music for 18 Musicians’ and ‘Tehillim’. Originally released in 1978, 1980 and 1982, each of these recordings had a decisive influence which continues to reverberate across musical idioms. The 3-CD box set includes a 44-page booklet with original liner notes by Steve Reich, a new essay by Paul Griffiths, and session photography by Deborah Feingold and Barbara Klemm.

Steve Reich - The ECM Recordings (2016)

TRACKLIST CD1

1. Music for 18 Musicians: Pulse – Sections I-X – Pulse 56:31

EAC Log
Exact Audio Copy V1.1 from 23. June 2015

EAC extraction logfile from 30. October 2016, 19:47

Steve Reich / Music for 18 Musicians [ECM New Series 2540]

Used drive : PLEXTOR DVDR PX-L890SA Adapter: 1 ID: 1

Read mode : Secure
Utilize accurate stream : Yes
Defeat audio cache : Yes
Make use of C2 pointers : No

Read offset correction : 6
Overread into Lead-In and Lead-Out : No
Fill up missing offset samples with silence : Yes
Delete leading and trailing silent blocks : No
Null samples used in CRC calculations : Yes
Used interface : Native Win32 interface for Win NT & 2000
Gap handling : Appended to previous track

Used output format : User Defined Encoder
Selected bitrate : 128 kBit/s
Quality : High
Add ID3 tag : No
Command line compressor : C:Program Files (x86)Exact Audio CopyFLACFLAC.EXE
Additional command line options : -8 -V -T "ARTIST=%artist%" -T "TITLE=%title%" -T "ALBUM=%albumtitle%" -T "DATE=%year%" -T "TRACKNUMBER=%tracknr%" -T "TOTALTRACKS=%numtracks%" -T "GENRE=%genre%" -T "ALBUMARTIST=%albumartist%" -T "ALBUM ARTIST=%albumartist%" -T "COMMENT=EAC Secure Mode, Test & Copy, AccurateRip, FLAC -8" %source%

TOC of the extracted CD

Track | Start | Length | Start sector | End sector
––––––––––––––––––––––––––––-
1 | 0:00.33 | 56:31.03 | 33 | 254360

Track 1

Filename D:Flac Rips1 – Pulse – Sections I-X – Pulse.wav

Pre-gap length 0:00:02.33

Peak level 93.6 %
Extraction speed 5.7 X
Track quality 99.9 %
Test CRC 7CEAF1CF
Copy CRC 7CEAF1CF
Accurately ripped (confidence 21) [BFCD41FF] (AR v2)
Copy OK

All tracks accurately ripped

No errors occurred

End of status report

–– CUETools DB Plugin V2.1.6

[CTDB TOCID: 1MJp3mnphzZSXNS4B7eChXC4HAk-] found
Submit result: 1MJp3mnphzZSXNS4B7eChXC4HAk- has been confirmed
Track | CTDB Status
1 | (86/99) Accurately ripped, or (1/99) differs in 946 samples @33:02:47,33:03:48-33:03:49,33:04:04,33:04:64-33:04:65,33:06:06-33:06:07,33:06:22,33:06:37,33:06:52,33:06:67-33:06:68,33:07:08,33:07:22-33:07:23,33:07:38,33:07:53-33:07:54,33:08:09,33:08:24-33:08:25,33:08:54-33:08:55,33:08:70,33:09:10-33:09:11,33:09:25-33:09:26,33:09:41,33:09:55-33:09:56,33:10:11-33:10:12,33:10:26-33:10:27,33:10:41-33:10:42,33:10:57-33:10:58,33:11:13,33:11:28,33:11:43-33:11:44,33:11:58-33:11:59,33:12:14-33:12:15,33:13:61,33:14:16-33:14:17,33:14:47-33:14:48,33:14:62-33:14:63,33:15:18,56:30:67-56:31:12, or (1/99) differs in 619 samples @44:37:39-44:37:40,44:40:52,44:41:11,44:42:04,44:42:21,44:44:41-44:44:42,44:46:27,44:47:20-44:47:21,44:48:47,44:49:24,44:49:40,44:50:50,44:53:63-44:53:64,44:55:16,45:01:25,45:03:12,45:03:62-45:03:63,45:05:66,45:06:42,45:06:59-45:06:60,45:10:50,45:10:67,45:12:02,45:15:33,45:16:09-45:16:10,45:18:30,45:18:64,45:20:00,45:22:54-45:22:55, or (5/99) differs in 619 samples @44:37:39-44:37:40,44:40:52,44:41:11,44:42:04,44:42:21,44:44:41-44:44:42,44:46:27,44:47:20-44:47:21,44:48:47,44:49:24,44:49:40,44:50:50,44:53:63-44:53:64,44:55:16,45:01:25,45:03:12,45:03:62-45:03:63,45:05:66,45:06:42,45:06:59-45:06:60,45:10:50,45:10:67,45:12:02,45:15:33,45:16:09-45:16:10,45:18:30,45:18:64,45:20:00,45:22:54-45:22:55

==== Log checksum F740F535223AF1682F37CC940B489D033FF7083002E43E7854A871CB9F0D3699 ====

Steve Reich - The ECM Recordings (2016)

TRACKLIST CD2

1. Music for Large Ensemble 15:38
2. Violin Phase 15:19
3. Octet 17:29

EAC Log
Exact Audio Copy V1.1 from 23. June 2015

EAC extraction logfile from 30. October 2016, 20:19

Steve Reich / Octet – Music For A Large Ensemble – Violin Phase [ECM New Series 2541]

Used drive : PLEXTOR DVDR PX-L890SA Adapter: 1 ID: 1

Read mode : Secure
Utilize accurate stream : Yes
Defeat audio cache : Yes
Make use of C2 pointers : No

Read offset correction : 6
Overread into Lead-In and Lead-Out : No
Fill up missing offset samples with silence : Yes
Delete leading and trailing silent blocks : No
Null samples used in CRC calculations : Yes
Used interface : Native Win32 interface for Win NT & 2000
Gap handling : Appended to previous track

Used output format : User Defined Encoder
Selected bitrate : 128 kBit/s
Quality : High
Add ID3 tag : No
Command line compressor : C:Program Files (x86)Exact Audio CopyFLACFLAC.EXE
Additional command line options : -8 -V -T "ARTIST=%artist%" -T "TITLE=%title%" -T "ALBUM=%albumtitle%" -T "DATE=%year%" -T "TRACKNUMBER=%tracknr%" -T "TOTALTRACKS=%numtracks%" -T "GENRE=%genre%" -T "ALBUMARTIST=%albumartist%" -T "ALBUM ARTIST=%albumartist%" -T "COMMENT=EAC Secure Mode, Test & Copy, AccurateRip, FLAC -8" %source%

TOC of the extracted CD

Track | Start | Length | Start sector | End sector
––––––––––––––––––––––––––––-
1 | 0:00.33 | 15:38.00 | 33 | 70382
2 | 15:38.33 | 15:19.37 | 70383 | 139344
3 | 30:57.70 | 17:29.23 | 139345 | 218042

Track 1

Filename D:Flac Rips1 – Music For A Large Ensemble.wav

Pre-gap length 0:00:02.33

Peak level 74.1 %
Extraction speed 4.3 X
Track quality 100.0 %
Test CRC 1EC90447
Copy CRC 1EC90447
Accurately ripped (confidence 3) [1F8E7C4B] (AR v2)
Copy OK

Track 2

Filename D:Flac Rips2 – Violin Phase.wav

Pre-gap length 0:00:10.00

Peak level 62.1 %
Extraction speed 5.6 X
Track quality 100.0 %
Test CRC FD96AA61
Copy CRC FD96AA61
Accurately ripped (confidence 3) [8E999F6A] (AR v2)
Copy OK

Track 3

Filename D:Flac Rips3 – Octet.wav

Pre-gap length 0:00:10.00

Peak level 75.0 %
Extraction speed 6.7 X
Track quality 100.0 %
Test CRC CB229B28
Copy CRC CB229B28
Accurately ripped (confidence 3) [048349EC] (AR v2)
Copy OK

All tracks accurately ripped

No errors occurred

End of status report

–– CUETools DB Plugin V2.1.6

[CTDB TOCID: oaJbClAeJ9jlG2xNO1et54D7zFg-] found
Submit result: oaJbClAeJ9jlG2xNO1et54D7zFg- has been confirmed
Track | CTDB Status
1 | (36/36) Accurately ripped
2 | (36/36) Accurately ripped
3 | (36/36) Accurately ripped

==== Log checksum 20E935174215EEB3DF6FB9463F84D3BA36B0B11700330CC92320344B0B32D9F5 ====

Steve Reich - The ECM Recordings (2016)

TRACKLIST CD3

1. Tehillim: Parts I & II 17:31
2. Tehillim: Parts III & IV 12:26

EAC Log
Exact Audio Copy V1.1 from 23. June 2015

EAC extraction logfile from 30. October 2016, 21:49

Steve Reich / Tehillim [ECM New Series 2542]

Used drive : PLEXTOR DVDR PX-L890SA Adapter: 1 ID: 1

Read mode : Secure
Utilize accurate stream : Yes
Defeat audio cache : Yes
Make use of C2 pointers : No

Read offset correction : 6
Overread into Lead-In and Lead-Out : No
Fill up missing offset samples with silence : Yes
Delete leading and trailing silent blocks : No
Null samples used in CRC calculations : Yes
Used interface : Native Win32 interface for Win NT & 2000
Gap handling : Appended to previous track

Used output format : User Defined Encoder
Selected bitrate : 128 kBit/s
Quality : High
Add ID3 tag : No
Command line compressor : C:Program Files (x86)Exact Audio CopyFLACFLAC.EXE
Additional command line options : -8 -V -T "ARTIST=%artist%" -T "TITLE=%title%" -T "ALBUM=%albumtitle%" -T "DATE=%year%" -T "TRACKNUMBER=%tracknr%" -T "TOTALTRACKS=%numtracks%" -T "GENRE=%genre%" -T "ALBUMARTIST=%albumartist%" -T "ALBUM ARTIST=%albumartist%" -T "COMMENT=EAC Secure Mode, Test & Copy, AccurateRip, FLAC -8" %source%

TOC of the extracted CD

Track | Start | Length | Start sector | End sector
––––––––––––––––––––––––––––-
1 | 0:00.33 | 17:31.12 | 33 | 78869
2 | 17:31.45 | 12:26.38 | 78870 | 134857

Track 1

Filename D:Flac Rips1 – Tehillim – Parts I & II.wav

Pre-gap length 0:00:02.33

Peak level 85.5 %
Extraction speed 4.4 X
Track quality 100.0 %
Test CRC FA400834
Copy CRC FA400834
Accurately ripped (confidence 3) [6372F347] (AR v2)
Copy OK

Track 2

Filename D:Flac Rips2 – Tehillim – Parts III & IV.wav

Pre-gap length 0:00:07.00

Peak level 84.4 %
Extraction speed 5.6 X
Track quality 100.0 %
Test CRC 55C8A140
Copy CRC 55C8A140
Accurately ripped (confidence 2) [ED59B5A5] (AR v2)
Copy OK

All tracks accurately ripped

No errors occurred

End of status report

–– CUETools DB Plugin V2.1.6

[CTDB TOCID: l3J2bhGLwKrQPh68uG3QY1Lw3AY-] found
Submit result: l3J2bhGLwKrQPh68uG3QY1Lw3AY- has been confirmed
Track | CTDB Status
1 | (36/37) Accurately ripped
2 | (36/37) Accurately ripped

==== Log checksum 0490656CDA96AD0B2214EBDAC467B2E45F19FF4B4E53F9401FFDAA6BB9EEA3EB ====

Steve Reich - The ECM Recordings (2016)

Thanks to the Original customer.
My Blog mp3, flac & HDtracks

Steve Reich – The ECM Recordings (2016) Download, Warez, DDL, Free, Full Album, Torrent, Legal.

Download