Steve Miller Band – The Joker (1973) Japanese XRCD, 1999 | ViralVideoPk

Daily Dose of Free Downloads

Steve Miller Band – The Joker (1973) Japanese XRCD, 1999

Download

Steve Miller Band - The Joker (1973) Japanese XRCD, 1999

Steve Miller Band – The Joker (1973) Japanese XRCD, 1999
EAC | FLAC | Image (Cue&Log) ~ 234 Mb (incl 5%) | Mp3 (CBR320) ~ 92 Mb (incl 5%) | Scans included
Genre: Classic Rock, Blues Rock | Label: JVC/Capitol | # JVCXR-0043-2 | Time: 00:36:17

The Joker is the eighth album by Steve Miller Band, released in 1973. The album marked a period of significant change for the group as the band abandoned their psychedelic oriented music for a more melodic, smooth rock/blues sound. Perhaps not coincidentally, it was also their first solid commercial success due to the strong radio-play of the title track. The title track took 19 days to record. The album reached #2 on the Billboard 200 and has been certified Platinum in the United States.

The Joker is, without question, the turning point in Steve Miller’s career, the album where he infused his blues with a big, bright dose of pop and got exactly what he deserved: Top Ten hits and stardom. He also lost a lot of fans, the ones who dug his winding improvs, because those spacy jams were driven by chops and revealed new worlds. The Joker isn’t mind-expanding, it’s party music, filled with good vibes, never laying a heavy trip, always keeping things light, relaxed and easygoing. Sometimes, the vibes are interrupted, but not in a harsh way – the second side slows a bit, largely due to the sludgy "Come in My Kitchen" and "Evil," the two songs that were recorded live but lacking any kinetic energy – but for the most part, this is all bright and fun, occasionally truly silly, as on "Shu Ba Da Du Ma Ma Ma Ma." This silliness, of course, alienated old fans all the more, but that sense of fun is both the most appealing thing about The Joker and it set a touchstone for the rest of his career. Here, it’s best heard on the terrific opener "Sugar Babe" and, of course, the timeless title track, which is sunny and ridiculous in equal measure. If nothing else is quite up to that standard in terms of songs – certainly, it’s not as jammed-pack as its successor, Fly Like an Eagle – The Joker nevertheless maintains its good-time vibe so well that it’s hard not to smile along…provided you’re on the same wavelength as Miller, of course.

Review by Stephen Thomas Erlewine, Allmusic.com

Steve Miller Band - The Joker (1973) Japanese XRCD, 1999

Steve Miller Band at Allmusic
Steve Miller Band Website
Steve Miller Band at Wiki

Tracklist:

01. Sugar Babe (04:37)
02. Mary Lou (02:26)
03. Shu Ba Da Du Ma Ma Ma Ma (05:43)
04. Your Cash Ain’t Nothin’ But Trash (03:23)
05. The Joker (04:28)
06. The Lovin Cup (02:12)
07. Come On In My Kitchen (04:06)
08. Evil (04:37)
09. Something To Believe In (04:42)

EAC log
Exact Audio Copy V1.0 beta 3 from 29. August 2011

Отчёт EAC об извлечении, выполненном 24. декабря 2016, 21:47

Steve Miller Band / The Joker

Дисковод: TSSTcorpCDDVDW SH-224DB Adapter: 1 ID: 0

Режим чтения : Достоверность
Использование точного потока : Да
Отключение кэша аудио : Да
Использование указателей C2 : Нет

Коррекция смещения при чтении : 6
Способность читать области Lead-in и Lead-out : Нет
Заполнение пропущенных сэмплов тишиной : Да
Удаление блоков с тишиной в начале и конце : Нет
При вычислениях CRC использовались нулевые сэмплы : Да
Интерфейс : Встроенный Win32-интерфейс для Win NT/2000

Выходной формат : Пользовательский кодировщик
Выбранный битрейт : 768 kBit/s
Качество : Высокий
Добавление ID3-тега : Нет
Утилита сжатия : C:Program FilesExact Audio CopyFlacflac.exe
Дополнительные параметры : -V -8 -T "Date=%year%" -T "Genre=%genre%" %source%

TOC извлечённого CD

Трек | Старт | Длительность | Начальный сектор | Конечный сектор
––––––––––––––––––––––––––––––––––-
1 | 0:00.37 | 4:37.70 | 37 | 20881
2 | 4:38.32 | 2:26.43 | 20882 | 31874
3 | 7:05.00 | 5:43.00 | 31875 | 57599
4 | 12:48.00 | 3:23.70 | 57600 | 72894
5 | 16:11.70 | 4:28.00 | 72895 | 92994
6 | 20:39.70 | 2:12.17 | 92995 | 102911
7 | 22:52.12 | 4:06.43 | 102912 | 121404
8 | 26:58.55 | 4:37.07 | 121405 | 142186
9 | 31:35.62 | 4:42.33 | 142187 | 163369

Характеристики диапазона извлечения и сообщения об ошибках

Выбранный диапазон

Имя файла D:lo$$le$$Steve Miller Band’73Steve Miller Band – The Joker.wav

Пиковый уровень 100.0 %
Скорость извлечения 2.6 X
Качество диапазона 99.9 %
CRC теста 6DA57136
CRC копии 6DA57136
Копирование… OK

Ошибок не произошло

Конец отчёта

==== Контрольная сумма отчёта 5FD7127BC170336DB27CBDAE861B18415A97A6D86A871EDF8EAC9C9EC74707E2 ====

AR log
[CUETools log; Date: 25.12.2016 20:49:43; Version: 2.1.4]
Pregap length 00:00:37.
[CTDB TOCID: dDYmjDkS2A8VDQOQGeuTAzJJnng-] found.
Track | CTDB Status
1 | (23/23) Accurately ripped
2 | (23/23) Accurately ripped
3 | (23/23) Accurately ripped
4 | (23/23) Accurately ripped
5 | (23/23) Accurately ripped
6 | (23/23) Accurately ripped
7 | (23/23) Accurately ripped
8 | (23/23) Accurately ripped
9 | (23/23) Accurately ripped
[AccurateRip ID: 000c4d0e-0059f46e-73088209] found.
Track [ CRC | V2 ] Status
01 [06e67c21|756c2bf6] (20+36/56) Accurately ripped
02 [3dfe04dc|d67c0eda] (20+36/56) Accurately ripped
03 [cdc6f9e5|b2d0b5be] (20+36/56) Accurately ripped
04 [b0b1ca5a|471ef840] (20+36/56) Accurately ripped
05 [e79ff3b7|91938980] (20+39/59) Accurately ripped
06 [e051065d|7eb11ad9] (20+36/56) Accurately ripped
07 [60d9ca23|3fd40505] (20+36/56) Accurately ripped
08 [7e9edb2e|8242c492] (20+37/57) Accurately ripped
09 [00af323a|3d007331] (20+37/57) Accurately ripped
Offsetted by 6:
01 [222fe20b] (00/56) No match (V2 was not tested)
02 [c49d0d12] (00/56) No match (V2 was not tested)
03 [f7620eeb] (00/56) No match (V2 was not tested)
04 [975e2f48] (00/56) No match (V2 was not tested)
05 [e8945935] (00/59) No match (V2 was not tested)
06 [e14a8779] (00/56) No match (V2 was not tested)
07 [7e2eb448] (00/56) No match (V2 was not tested)
08 [69f17b35] (00/57) No match (V2 was not tested)
09 [a9bdc94c] (00/57) No match (V2 was not tested)

Track Peak [ CRC32 ] [W/O NULL] [ LOG ]
– 100,0 [6DA57136] [E93BD1C3] CRC32
01 99,8 [71B6B8CA] [21AC46C7]
02 100,0 [91C3EE2C] [4E051968]
03 100,0 [98E038A6] [C98C6AA4]
04 100,0 [942FFCA4] [7D530111]
05 100,0 [7C100F8C] [D52DEEF5]
06 100,0 [A48F1DC3] [673558E3]
07 91,7 [3A3AAD8A] [006EC83E]
08 96,5 [41DA9887] [215A8482]
09 86,1 [23F3CF2F] [689243CC]

DR log
foobar2000 1.2 / Dynamic Range Meter 1.1.1
log date: 2016-12-25 20:48:50

––––––––––––––––––––––––––––––––––––––––
Analyzed: Steve Miller Band / The Joker
––––––––––––––––––––––––––––––––––––––––

DR Peak RMS Duration Track
––––––––––––––––––––––––––––––––––––––––
DR9 -0.01 dB -10.99 dB 4:38 01-Sugar Babe
DR12 0.00 dB -13.43 dB 2:27 02-Mary Lou
DR10 0.00 dB -12.49 dB 5:43 03-Shu Ba Da Du Ma Ma Ma Ma
DR12 0.00 dB -13.40 dB 3:24 04-Your Cash Ain’t Nothin’ But Trash
DR11 0.00 dB -13.68 dB 4:28 05-The Joker
DR11 0.00 dB -13.24 dB 2:12 06-The Lovin Cup
DR11 -0.75 dB -13.94 dB 4:07 07-Come On In My Kitchen
DR10 -0.31 dB -13.44 dB 4:37 08-Evil
DR11 -1.30 dB -14.85 dB 4:42 09-Something To Believe In
––––––––––––––––––––––––––––––––––––––––

Number of tracks: 9
Official DR value: DR11

Samplerate: 44100 Hz
Channels: 2
Bits per sample: 16
Bitrate: 839 kbps
Codec: FLAC
================================================================================

Steve Miller Band - The Joker (1973) Japanese XRCD, 1999

Steve Miller Band - The Joker (1973) Japanese XRCD, 1999

All thanks to original releaser – vicpalbk2006

More interesting music in My Blog

The Steve Miller Band – Sailor (1968) Japanese Reissue 2007

Steve Miller Band – The Joker (1973) Japanese XRCD, 1999 Download, Warez, DDL, Free, Full Album, Torrent, Legal.

Download


  • Recent Posts

  • Recent Tags