Stephan Micus – Desert Poems (2001) [Re-Up]

Download
Stephan Micus - Desert Poems (2001) [Re-Up]

Stephan Micus – Desert Poems (2001)
EAC | FLAC | Image (Cue&Log) ~ 217 Mb | Mp3 (CBR320) ~ 125 Mb | Scans included
World Fusion, Neo-Classical | Label: ECM | # ECM 1757, 159 739-2 | 00:47:23

Desert Poems both consolidates and expands Stephan Micus’s solo quest to fashion a music of archetypal, world-ranging import: music–often modal in nature–which would be both as old as the proverbial hills, yet as fresh as tomorrow. If you’ve followed this multi-instrumentalist’s musical odyssey of the past 30-or-so years (this is something like his 15th solo project) you probably won’t need any encouragement to buy an album that finds Micus’s mastery of such instruments as the sarangi, nay, shakahuchi, steel drum and humble flower pot enhanced by a range of solo and polyphonic vocals. His pan-global sources are filtered to create a somewhat sombre, strongly devotional sense of the deeper rhythms of life to which music may awaken us. Apart from the vocalising on pieces like "Contessa Entellina", standout tracks include the solo shakuhachi feature "First Snow" and an instrumental reworking of "Shen Khar Venakhi", a masterpiece of old Georgian polyphony.

Review by Michael Tucker

It is true that, in world music circles, a kind of incipient racism can surface regarding white musicians who venture into other cultures. Some crossover experiments are dubious and dilute their sources, to be sure, but there are plenty of worthy aesthetics stitched from pan-ethnic influences, as well. Take the case of Stephan Micus, a multi-instrumentalist, and multicultural sound poet who has been creating entrancing musical landscapes for many years, leading up to his 15th album on ECM, Desert Poems. Micus is in a virtually unique position, concocting meditative music through tasteful use of overdubbing. For this project, the instrument list includes sarangi, kalimba, nay, shakuhachi (as on the meltingly beautiful solo piece, “First Show”) and the voice, often stacked in layers. As usual, Micus composed all the tracks except for a rare “Shen Khar Venakhi,” a traditional Georgian choral, but here realized using multiple tracks of dilruba and sattarr-bowed instruments from India and Turkey, respectively-to create a resonant swirl of sound. Micus has mined ideas from around the world, but developed a quietly compelling musical world of his own.

Review by Josef Woodard, JazzTimes.com

On Desert Poems, Stephan Micus’s 15th solo excursion, the intrepid musical sojourner introduces a few new actors to his already extensive roster of instruments: the doussn’gouni (West African harp), kalimba (Tanzanian thumb piano), and dondon (Ghanaian talking drum). These he nestles among more familiar veterans: his modified 10-string sarangi, dilruba (another bowed instrument from India), ney, and sattar (an upright Uighur fiddle). As always, Micus is attentive to the Janus nature of the instruments he touches. On the one hand each has a history, while on the other it enables new paths of expression. He embraces both as equals.

Characteristic histrionics speak of a thousand other worlds in “The Horses of Nizami” (for sarangi, 5 dondon, and 23 voices) and in “Mikhail’s Dream” (2 kalimba, voice, sinding, 2 steel drums, percussion). In these multi-tracked biospheres, a self divided becomes a self magnified and therefore needs its own language to breathe properly. Indeed, at Micus’s touch the sarangi body becomes a wooden lung through which a chanting chorus activates its array of sympathetic strings. Buzzing kalimba then glow with firefly steps, a ladder of light into the rising dune heat. Amid this flowering conference of souls, a single voice rises into, even as it drops down from, the ether and places its song on a fulcrum of memory and future paths.

The blood of this album’s earthly incarnation is purified by “Adela” (for 22 dilruba), for it speaks of a mirroring heaven in which all that has come to pass awakens to the possibility of a self-aware now. These sounds take human shape: a warrior walking upside down, feet treading sky, his horse long dead behind him, turned to cloud and dropping rain somewhere on more fertile land. With a grating pulse, he marks his footfalls by way of a dotted moon. By nightfall, only his afterimages remain, thrumming in the counterpart of “Shen Khar Venakhi” (6 dilruba, 6 sattar), a 13th-century choral piece from Georgia which Micus arranges in wordless tonsure.

“Thirteen Eagles” (doussn’gouni, 20 ney) and “For Yuko” (2 flowerpots, 8 voices, shakuhachi) share another soul. One is a blissful trek over land and under emotion that focuses purely on movement and shape, ney pleated many times over like feathers and free as heroines of the open sky. The other bears dedication to the performer’s daughter in a galaxy of nascent voices, hurtling through space along a trajectory of sentience and love.

If these are the internal organs, three solo tracks comprise the external features. The eyes flicker into being by way of “First Snow.” Although not a title one might expect amid all this warmth, the continuity is not lost. Its lone shakuhachi is an arid instrument. Cored and lacquered, it rasps like wind through wheat and digs through the soil with deeply grained fingertips. Its song dreams of water, and like the snow remains dry until the warmth of sun or living touch renders it fleeting. Lips speak in “Contessa Entelina,” a voice solo in English that is named for, and inspired by, a village Micus encountered while riding through the Sicilian countryside, and tells the story of a countess who provided solace to Albanian immigrants some centuries ago. This intimate portrait folds perfect divinity into the imperfect cage of human language and means. Ears listen in “Night,” a far-reaching doussn’gouni reflection that bears gifts from the heavens to the caverns.

Seemingly enamored with the same consuming silence of the desert that captured the heart of writer Paul Bowles, Micus translates the hidden energies of landscape into a form that escapes all measure of mortal grasp. World music? Perhaps. But not entirely of this one.

Review by Tyran Grillo, ECMReviews.com

Stephan Micus - Desert Poems (2001) [Re-Up]

Stephan Micus at Allmusic
Stephan Micus at Wiki

Stephan Micus: sarangi, dondon, dilruba, doussn’gouni, kalimba,
sinding, steel drums, shakuhachi, ney, sattar, flowerpots, voice
Recorded 1997-2000 MCM Studios

Tracklist:

01. The Horses of Nizami (Sarangi, 5 dondon, 23 voices) (3:41)
02. Adela (22 dilruba) (5:51)
03. Night (Doussn’ gouni solo) (2:54)
04. Mikhail’s Dream (2 kalimba, voice, sinding, 2 steel drums, percussion) (8:26)
05. First Snow (Shakuhachi solo) (5:06)
06. Thirteen Eagles (Doussn’ goumi, 20 nay) (5:40)
07. Contessa Entellina (Voice solo) (4:35)
08. Shen Khar Venakhi (6 dilruba, 6 sattar) (2:52)
09. For Yuko (2 flowerpots, 8 voices, shakuhachi) (8:17)

EAC log
Exact Audio Copy V0.99 prebeta 5 from 4. May 2009

EAC extraction logfile from 8. June 2011, 11:29

Stephan Micus / Desert poems

Used drive : Optiarc DVD RW AD-7700H Adapter: 0 ID: 1

Read mode : Secure
Utilize accurate stream : Yes
Defeat audio cache : Yes
Make use of C2 pointers : No

Read offset correction : 48
Overread into Lead-In and Lead-Out : No
Fill up missing offset samples with silence : Yes
Delete leading and trailing silent blocks : No
Null samples used in CRC calculations : Yes
Used interface : Native Win32 interface for Win NT & 2000
Gap handling : Appended to previous track

Used output format : User Defined Encoder
Selected bitrate : 768 kBit/s
Quality : High
Add ID3 tag : No
Command line compressor : C:Program Files (x86)Exact Audio CopyFLACFLAC.EXE
Additional command line options : -8 -V -T "ARTIST=%a" -T "TITLE=%t" -T "ALBUM=%g" -T "DATE=%y" -T "TRACKNUMBER=%n" -T "GENRE=%m" -T "COMMENT=EAC FLAC -8" %s

TOC of the extracted CD

Track | Start | Length | Start sector | End sector
––––––––––––––––––––––––––––-
1 | 0:00.00 | 3:41.13 | 0 | 16587
2 | 3:41.13 | 5:50.42 | 16588 | 42879
3 | 9:31.55 | 2:54.20 | 42880 | 55949
4 | 12:26.00 | 8:26.36 | 55950 | 93935
5 | 20:52.36 | 5:05.73 | 93936 | 116883
6 | 25:58.34 | 5:40.31 | 116884 | 142414
7 | 31:38.65 | 4:35.32 | 142415 | 163071
8 | 36:14.22 | 2:51.58 | 163072 | 175954
9 | 39:06.05 | 8:16.70 | 175955 | 213224

Track 1

Filename C:UserssonyMusic_Seeds1 – The Horses of Nizami (Sarangi, 5 dondon, 23 voices).wav

Pre-gap length 0:00:02.00

Peak level 100.0 %
Track quality 99.9 %
Test CRC EA2ED530
Copy CRC EA2ED530
Accurately ripped (confidence 13) [E5DC9788]
Copy OK

Track 2

Filename C:UserssonyMusic_Seeds2 – Adela (22 dilruba).wav

Pre-gap length 0:00:04.73

Peak level 100.0 %
Track quality 100.0 %
Test CRC 2EFECAF8
Copy CRC 2EFECAF8
Accurately ripped (confidence 13) [869DC07D]
Copy OK

Track 3

Filename C:UserssonyMusic_Seeds3 – Night (Doussn’ gouni solo).wav

Pre-gap length 0:00:07.18

Peak level 65.8 %
Track quality 100.0 %
Test CRC 37E80591
Copy CRC 37E80591
Accurately ripped (confidence 13) [CAD9B5EA]
Copy OK

Track 4

Filename C:UserssonyMusic_Seeds4 – Mikhail’s Dream (2 kalimba, voice, sinding, 2 steel drums, percussion).wav

Pre-gap length 0:00:05.36

Peak level 97.4 %
Track quality 100.0 %
Test CRC 8983B4A4
Copy CRC 8983B4A4
Accurately ripped (confidence 13) [43B3291B]
Copy OK

Track 5

Filename C:UserssonyMusic_Seeds5 – First Snow (Shakuhachi solo).wav

Pre-gap length 0:00:06.22

Peak level 62.3 %
Track quality 100.0 %
Test CRC 86E1083A
Copy CRC 86E1083A
Accurately ripped (confidence 13) [FF008C32]
Copy OK

Track 6

Filename C:UserssonyMusic_Seeds6 – Thirteen Eagles (Doussn’ goumi, 20 nay).wav

Pre-gap length 0:00:08.41

Peak level 93.8 %
Track quality 100.0 %
Test CRC 20887B25
Copy CRC 20887B25
Accurately ripped (confidence 12) [331B396C]
Copy OK

Track 7

Filename C:UserssonyMusic_Seeds7 – Contessa Entellina (Voice solo).wav

Pre-gap length 0:00:05.23

Peak level 74.7 %
Track quality 100.0 %
Test CRC 6F48F8C5
Copy CRC 6F48F8C5
Accurately ripped (confidence 13) [F4868F79]
Copy OK

Track 8

Filename C:UserssonyMusic_Seeds8 – Shen Khar Venakhi (6 dilruba, 6 sattar).wav

Pre-gap length 0:00:06.10

Peak level 56.4 %
Track quality 100.0 %
Test CRC 29F0E457
Copy CRC 29F0E457
Accurately ripped (confidence 13) [A47E69D3]
Copy OK

Track 9

Filename C:UserssonyMusic_Seeds9 – For Yuko (2 flowerpots, 8 voices, shakuhachi).wav

Pre-gap length 0:00:07.50

Peak level 92.1 %
Track quality 100.0 %
Test CRC D7F2769D
Copy CRC D7F2769D
Accurately ripped (confidence 13) [FB730EAB]
Copy OK

All tracks accurately ripped

No errors occurred

End of status report

AR log
[CUETools log; Date: 12.07.2017 3:56:51; Version: 2.1.4]
[CTDB TOCID: 37RyfnmVQlOOwTxKa9.xhIdEupc-] found.
Track | CTDB Status
1 | (25/25) Accurately ripped
2 | (24/25) Accurately ripped
3 | (24/25) Accurately ripped
4 | (24/25) Accurately ripped
5 | (24/25) Accurately ripped
6 | (23/25) Accurately ripped
7 | (24/25) Accurately ripped
8 | (24/25) Accurately ripped
9 | (23/25) Accurately ripped
[AccurateRip ID: 000f93e9-007391a7-6e0b1b09] found.
Track [ CRC | V2 ] Status
01 [e5dc9788|4cd55e66] (15+20/41) Accurately ripped
02 [869dc07d|8a4e88e9] (15+20/41) Accurately ripped
03 [cad9b5ea|5cab5109] (15+20/41) Accurately ripped
04 [43b3291b|03fc6ba0] (15+20/41) Accurately ripped
05 [ff008c32|78c98130] (14+20/40) Accurately ripped
06 [331b396c|1685fc52] (14+19/39) Accurately ripped
07 [f4868f79|e86a59dc] (15+20/41) Accurately ripped
08 [a47e69d3|38cd7773] (15+20/41) Accurately ripped
09 [fb730eab|cae6fd1c] (15+20/41) Accurately ripped
Offsetted by -667:
01 [5c12e565] (00/41) No match (V2 was not tested)
02 [daaf9380] (00/41) No match (V2 was not tested)
03 [eb696ae7] (00/41) No match (V2 was not tested)
04 [3d46396d] (00/41) No match (V2 was not tested)
05 [655cc731] (00/40) No match (V2 was not tested)
06 [58b4f633] (00/39) No match (V2 was not tested)
07 [b12d8a96] (00/41) No match (V2 was not tested)
08 [168d703a] (00/41) No match (V2 was not tested)
09 [a1bfa33a] (00/41) No match (V2 was not tested)

Track Peak [ CRC32 ] [W/O NULL] [ LOG ]
– 100,0 [5BAD8170] [207B2412]
01 100,0 [EA2ED530] [DF9E118E] CRC32
02 100,0 [2EFECAF8] [4C0AB72C] CRC32
03 65,8 [37E80591] [F57E92A6] CRC32
04 97,4 [8983B4A4] [1560E2C5] CRC32
05 62,3 [86E1083A] [CD975A1D] CRC32
06 93,8 [20887B25] [7E7E687A] CRC32
07 74,7 [6F48F8C5] [0338F40B] CRC32
08 56,4 [29F0E457] [0341F3D9] CRC32
09 92,1 [D7F2769D] [EAB401CE] CRC32

DR log
foobar2000 1.2 / Dynamic Range Meter 1.1.1
log date: 2017-07-12 03:59:51

––––––––––––––––––––––––––––––––––––––––
Analyzed: Stephan Micus / Desert poems
––––––––––––––––––––––––––––––––––––––––

DR Peak RMS Duration Track
––––––––––––––––––––––––––––––––––––––––
DR11 0.00 dB -15.41 dB 3:41 01-The Horses of Nizami (Sarangi, 5 dondon, 23 voices)
DR10 0.00 dB -14.16 dB 5:51 02-Adela (22 dilruba)
DR14 -3.63 dB -22.92 dB 2:54 03-Night (Doussn’ gouni solo)
DR12 -0.22 dB -17.88 dB 8:26 04-Mikhail’s Dream (2 kalimba, voice, sinding, 2 steel drums, percussion)
DR10 -4.10 dB -21.34 dB 5:06 05-First Snow (Shakuhachi solo)
DR11 -0.55 dB -16.50 dB 5:40 06-Thirteen Eagles (Doussn’ goumi, 20 nay)
DR13 -2.53 dB -24.14 dB 4:35 07-Contessa Entellina (Voice solo)
DR13 -4.96 dB -22.30 dB 2:52 08-Shen Khar Venakhi (6 dilruba, 6 sattar)
DR13 -0.71 dB -20.25 dB 8:17 09-For Yuko (2 flowerpots, 8 voices, shakuhachi)
––––––––––––––––––––––––––––––––––––––––

Number of tracks: 9
Official DR value: DR12

Samplerate: 44100 Hz
Channels: 2
Bits per sample: 16
Bitrate: 476 kbps
Codec: FLAC
================================================================================

Stephan Micus - Desert Poems (2001) [Re-Up]

Stephan Micus - Desert Poems (2001) [Re-Up]

All thanks to original releaser – ILP-555

More Stephan Micus music at AvaxHome
Stephan Micus – Implosions (1977)

Stephan Micus – Till The End Of Time (1978)

Stephan Micus – Wings Over Water (1982)

Stephan Micus – Listen To The Rain (1983)

Stephan Micus – East Of The Night (1985)

Stephan Micus – Ocean (1986)

Stephan Micus – The Music of Stones (1989)

Stephan Micus – Darkness And Light (1990)

Stephan Micus – To The Evening Child (1992)

Stephan Micus – Athos: A Journey To The Holy Mountain (1994)

Stephan Micus – The Garden Of Mirrors (1997)

Stephan Micus – Life (2004)

Stephan Micus – On The Wing (2006)

Stephan Micus – Bold As Light (2010)

Stephan Micus – Desert Poems (2001) [Re-Up] Download, Warez, DDL, Free, Full Album, Torrent, Legal.

Download