Steeplechase – Lady Bright (1970)

Download
Steeplechase - Lady Bright (1970)

Steeplechase – Lady Bright (1970)
EAC | Flac(Image) + Cue + Log & MP3 CBR 320Kbps
2006 | Mason Records, MR 56449 | RU | ~ 229 or 91 Mb | Scans Included
Proto Prog, Hard Rock

~ Solid early 70’s Hard Rock, with some soulrock and late-psych moves – metaxa, rateyourmusic.com/ ~

Steeplechase – Lady Bright (1970):

Steeplechase - Lady Bright (1970)

Tracklist:

01. Wrought Iron Man 04:18
02. Shorty Stokes 03:49
03. Down On The Town 03:25
04. Talking Bout You 03:04
05. Lady Bright 04:12
06. In The Valley 02:37
07. Mary Clarke 04:20
08. Sea Shore 04:29
09. Never Coming Back 03:23
10. Cherry Blossom 02:54

Musicians:

Dean Parrish – vocals, guitar
Bobby Spinella – organ, piano, harpsichord, electric piano, backing vocals
Tony Radicello – bass, backing vocals, organ, 12-strings guitar
Joey Forgione – drums, percussion, backing vocals

Kim King – guitar
Paul Fleisher – horn
Eddie Kramer – piano, backing vocals

EAC Log
Exact Audio Copy V1.1 from 23. June 2015

EAC extraction logfile from 4. February 2017, 10:48

Steeplechase / Lady Bright

Used drive : TSSTcorpCDDVDW SH-224DB Adapter: 1 ID: 0

Read mode : Secure
Utilize accurate stream : Yes
Defeat audio cache : Yes
Make use of C2 pointers : No

Read offset correction : 6
Overread into Lead-In and Lead-Out : No
Fill up missing offset samples with silence : Yes
Delete leading and trailing silent blocks : No
Null samples used in CRC calculations : Yes
Used interface : Native Win32 interface for Win NT & 2000

Used output format : User Defined Encoder
Selected bitrate : 1024 kBit/s
Quality : High
Add ID3 tag : No
Command line compressor : C:Program Files (x86)Exact Audio Copywin64flac.exe
Additional command line options : -8 -V -T "ARTIST=%artist%" -T "TITLE=%title%" -T "ALBUM=%albumtitle%" -T "DATE=%year%" -T "TRACKNUMBER=%tracknr%" -T "GENRE=%genre%" -T "COMMENT=%comment%" %source% -o %dest%

TOC of the extracted CD

Track | Start | Length | Start sector | End sector
––––––––––––––––––––––––––––-
1 | 0:00.00 | 4:18.22 | 0 | 19371
2 | 4:18.22 | 3:49.03 | 19372 | 36549
3 | 8:07.25 | 3:25.37 | 36550 | 51961
4 | 11:32.62 | 3:04.00 | 51962 | 65761
5 | 14:36.62 | 4:11.65 | 65762 | 84651
6 | 18:48.52 | 2:36.61 | 84652 | 96412
7 | 21:25.38 | 4:19.47 | 96413 | 115884
8 | 25:45.10 | 4:28.40 | 115885 | 136024
9 | 30:13.50 | 3:22.59 | 136025 | 151233
10 | 33:36.34 | 2:53.43 | 151234 | 164251

Range status and errors

Selected range

Filename C:Sket4erSteeplechase – Lady Bright (1970) 2006Steeplechase – Lady Bright.wav

Peak level 98.8 %
Extraction speed 2.9 X
Range quality 100.0 %
Test CRC D2609F5F
Copy CRC D2609F5F
Copy OK

No errors occurred

AccurateRip summary

Track 1 cannot be verified as accurate (confidence 1) [D293A339], AccurateRip returned [BC6F0334] (AR v2)
Track 2 cannot be verified as accurate (confidence 1) [05046997], AccurateRip returned [29E15C85] (AR v2)
Track 3 cannot be verified as accurate (confidence 1) [06ABA266], AccurateRip returned [38792E21] (AR v2)
Track 4 cannot be verified as accurate (confidence 1) [7410B689], AccurateRip returned [A1352029] (AR v2)
Track 5 cannot be verified as accurate (confidence 1) [77F755C6], AccurateRip returned [187E5226] (AR v2)
Track 6 cannot be verified as accurate (confidence 1) [029C6F14], AccurateRip returned [9D2AE007] (AR v2)
Track 7 cannot be verified as accurate (confidence 1) [97B2B5BA], AccurateRip returned [28F9CC24] (AR v2)
Track 8 cannot be verified as accurate (confidence 1) [430828C7], AccurateRip returned [9E9FCF27] (AR v2)
Track 9 cannot be verified as accurate (confidence 1) [3EBC3BF4], AccurateRip returned [10FBDE6B] (AR v2)
Track 10 cannot be verified as accurate (confidence 1) [DF3B719A], AccurateRip returned [EC172987] (AR v2)

No tracks could be verified as accurate
You may have a different pressing from the one(s) in the database

End of status report

–– CUETools DB Plugin V2.1.6

[CTDB TOCID: S85p0Cwhw4GQfmKzrbjzPJLVw1U-] disk not present in database
Submit result: S85p0Cwhw4GQfmKzrbjzPJLVw1U- has been uploaded

==== Log checksum 86F56E917464E04F8303B4DD1DD771C53060362C7C2984240BB572B627B0422C ====

DR Log
foobar2000 1.2.9 / Dynamic Range Meter 1.1.1
log date: 2017-02-04 23:28:07

––––––––––––––––––––––––––––––––––––––––
Analyzed: Steeplechase / Lady Bright
––––––––––––––––––––––––––––––––––––––––

DR Peak RMS Duration Track
––––––––––––––––––––––––––––––––––––––––
DR12 -0.12 dB -15.02 dB 4:18 01-Wrought Iron Man
DR12 -0.10 dB -14.26 dB 3:49 02-Shorty Stokes
DR12 -0.10 dB -14.79 dB 3:25 03-Down On The Town
DR13 -0.10 dB -14.82 dB 3:04 04-Talking Bout You
DR12 -0.45 dB -14.62 dB 4:12 05-Lady Bright
DR11 -0.10 dB -12.72 dB 2:37 06-In The Valley
DR11 -0.10 dB -12.74 dB 4:20 07-Mary Clarke
DR11 -0.10 dB -13.78 dB 4:29 08-Sea Shore
DR12 -1.05 dB -15.62 dB 3:23 09-Never Coming Back
DR12 -0.10 dB -14.39 dB 2:54 10-Cherry Blossom
––––––––––––––––––––––––––––––––––––––––

Number of tracks: 10
Official DR value: DR12

Samplerate: 44100 Hz
Channels: 2
Bits per sample: 16
Bitrate: 834 kbps
Codec: FLAC

CUETools Log
[CUETools log; Date: 04.02.2017 23:13:21; Version: 2.1.4]
[CTDB TOCID: S85p0Cwhw4GQfmKzrbjzPJLVw1U-] found.
Track | CTDB Status
1 | (1/1) Accurately ripped
2 | (1/1) Accurately ripped
3 | (1/1) Accurately ripped
4 | (1/1) Accurately ripped
5 | (1/1) Accurately ripped
6 | (1/1) Accurately ripped
7 | (1/1) Accurately ripped
8 | (1/1) Accurately ripped
9 | (1/1) Accurately ripped
10 | (1/1) Accurately ripped
[AccurateRip ID: 000e11fb-006ff921-8b088e0a] found.
Track [ CRC | V2 ] Status
01 [302e37e6|d293a339] (0+0/1) No match
02 [172fafd3|05046997] (0+0/1) No match
03 [5a90244d|06aba266] (0+0/1) No match
04 [a1d342b8|7410b689] (0+0/1) No match
05 [8681e48b|77f755c6] (0+0/1) No match
06 [9061a0d7|029c6f14] (0+0/1) No match
07 [2c45b0b0|97b2b5ba] (0+0/1) No match
08 [1f92243d|430828c7] (0+0/1) No match
09 [bba5c5f3|3ebc3bf4] (0+0/1) No match
10 [49e6f089|df3b719a] (0+0/1) No match
Offsetted by -192:
01 [d9bbe266] (0/1) No match (V2 was not tested)
02 [03804dd3] (0/1) No match (V2 was not tested)
03 [594bb20d] (0/1) No match (V2 was not tested)
04 [a17246b8] (0/1) No match (V2 was not tested)
05 [e82cc68b] (0/1) No match (V2 was not tested)
06 [03da2d97] (0/1) No match (V2 was not tested)
07 [7d36f470] (0/1) No match (V2 was not tested)
08 [382d507d] (0/1) No match (V2 was not tested)
09 [5a5ba3b3] (0/1) No match (V2 was not tested)
10 [ca990189] (0/1) No match (V2 was not tested)

Track Peak [ CRC32 ] [W/O NULL] [ LOG ]
– 98,8 [D2609F5F] [F2E5D93D] CRC32
01 98,5 [9113D475] [A2C52E11]
02 98,8 [204D1609] [0C99F602]
03 98,8 [61ED92BF] [F22617ED]
04 98,8 [01A878D1] [1E8036AF]
05 94,9 [19BC3A37] [12D104F6]
06 98,8 [CDFC7CF1] [085CD74A]
07 98,8 [97B98C7D] [471D275A]
08 98,8 [4FA6D9EA] [D2693630]
09 88,6 [61BBB789] [64B2E6F2]
10 98,8 [6585BFE7] [90E5CE2A]

Steeplechase - Lady Bright (1970)

All thanks go to the original releaser

Download Steeplechase – Lady Bright (1970):

Steeplechase – Lady Bright (1970) Download, Warez, DDL, Free, Full Album, Torrent, Legal.

Download