Status Quo – The Frantic Four Reunion, Live at Hammersmith – Back 2 SQ.1 (2013) 2 CDs | ViralVideoPk

Daily Dose of Free Downloads

Status Quo – The Frantic Four Reunion, Live at Hammersmith – Back 2 SQ.1 (2013) 2 CDs

Download

Status Quo - The Frantic Four Reunion, Live at Hammersmith - Back 2 SQ.1 (2013) 2 CDs

Status Quo – The Frantic Four Reunion, Live at Hammersmith – Back 2 SQ.1 (2013) 2 CDs
EAC | FLAC | Tracks (Cue&Log) ~ 593 Mb (incl 5%) | Mp3 (CBR320) ~ 206 Mb (incl 5%) | Scans ~ 118 Mb
Boogie Rock, Hard Rock, Rock & Roll | Fourth Chord/Abbey Road | # 05099961585928 | 01:25:34

When the original line-up of Status Quo reunited for a 9-dates UK tour in March of 2013 the outpouring of approval and raw emotion from the fans was incredible. Rossi, Parfitt, Lancaster and Coghlan received a rapturous response; the band clicked straight back into their groove, the chemistry obvious, the music stunning and the volume almost overpowering. Now the band are delighted to announce the release of "The Frantic Four Reunion 2013" a range of live material recorded on the tour.

Status Quo - The Frantic Four Reunion, Live at Hammersmith - Back 2 SQ.1 (2013) 2 CDs

Status Quo - The Frantic Four Reunion, Live at Hammersmith - Back 2 SQ.1 (2013) 2 CDs

Status Quo at Allmusic
Status Quo Website
Status Quo at Wiki

Tracklist:

CD1:

01. Junior’s Wailing (04:21)
02. Backwater (04:20)
03. Just Take Me (04:56)
04. Is There A Better Way (03:47)
05. In My Chair (03:13)
06. Blue-Eyed Lady (03:47)
07. Little Lady (03:14)
08. Most Of The Time (03:19)
09. (April) Spring, Summer and Wednesdays (04:13)
10. Railroad (05:51)
11. Oh Baby (04:49)

CD2:

01. Forty-Five Hundred Times (05:13)
02. Rain (05:04)
03. Big Fat Mama (05:27)
04. Down Down (05:57)
05. Roadhouse Blues (06:48)
06. Don’t Waste My Time (04:27)
07. Bye Bye Johnny (06:41)

EAC log CD1
Exact Audio Copy V1.0 beta 3 from 29. August 2011

EAC extraction logfile from 12. April 2016, 1:06

Status Quo / The Frantic Four Reunion 2013 Disc 1

Used drive : HL-DT-STDVDRAM GH24NS90 Adapter: 1 ID: 0

Read mode : Secure
Utilize accurate stream : Yes
Defeat audio cache : No
Make use of C2 pointers : Yes

Read offset correction : 6
Overread into Lead-In and Lead-Out : No
Fill up missing offset samples with silence : Yes
Delete leading and trailing silent blocks : No
Null samples used in CRC calculations : Yes
Used interface : Native Win32 interface for Win NT & 2000
Gap handling : Appended to previous track

Used output format : User Defined Encoder
Selected bitrate : 1024 kBit/s
Quality : High
Add ID3 tag : No
Command line compressor : C:Program Files (x86)FLACmetaflac.exe
Additional command line options : -8

TOC of the extracted CD

Track | Start | Length | Start sector | End sector
––––––––––––––––––––––––––––-
1 | 0:00.00 | 4:21.19 | 0 | 19593
2 | 4:21.19 | 4:20.45 | 19594 | 39138
3 | 8:41.64 | 4:56.13 | 39139 | 61351
4 | 13:38.02 | 3:47.01 | 61352 | 78377
5 | 17:25.03 | 3:13.13 | 78378 | 92865
6 | 20:38.16 | 3:47.20 | 92866 | 109910
7 | 24:25.36 | 3:14.01 | 109911 | 124461
8 | 27:39.37 | 3:19.03 | 124462 | 139389
9 | 30:58.40 | 4:13.63 | 139390 | 158427
10 | 35:12.28 | 5:51.72 | 158428 | 184824
11 | 41:04.25 | 4:49.48 | 184825 | 206547

Track 1

Filename C:Exact Audio CopyStatus QuoThe Frantic Four Reunion 2013 Disc 11. Junior’s Wailing.wav

Pre-gap length 0:00:02.00

Peak level 96.8 %
Extraction speed 3.6 X
Track quality 100.0 %
Test CRC 6FFDCFD6
Copy CRC 6FFDCFD6
Accurately ripped (confidence 2) [16E1F1BB] (AR v2)
Copy OK

Track 2

Filename C:Exact Audio CopyStatus QuoThe Frantic Four Reunion 2013 Disc 12. Backwater.wav

Peak level 96.8 %
Extraction speed 4.2 X
Track quality 100.0 %
Test CRC 05B4F0DB
Copy CRC 05B4F0DB
Accurately ripped (confidence 2) [D65FB257] (AR v2)
Copy OK

Track 3

Filename C:Exact Audio CopyStatus QuoThe Frantic Four Reunion 2013 Disc 13. Just Take Me.wav

Peak level 96.8 %
Extraction speed 4.8 X
Track quality 100.0 %
Test CRC AA57FA84
Copy CRC AA57FA84
Accurately ripped (confidence 2) [35EA0993] (AR v2)
Copy OK

Track 4

Filename C:Exact Audio CopyStatus QuoThe Frantic Four Reunion 2013 Disc 14. Is There A Better Way.wav

Peak level 96.8 %
Extraction speed 5.1 X
Track quality 100.0 %
Test CRC 3D74355B
Copy CRC 3D74355B
Accurately ripped (confidence 2) [E91687A4] (AR v2)
Copy OK

Track 5

Filename C:Exact Audio CopyStatus QuoThe Frantic Four Reunion 2013 Disc 15. In My Chair.wav

Peak level 96.7 %
Extraction speed 5.4 X
Track quality 100.0 %
Test CRC 9C2114C1
Copy CRC 9C2114C1
Accurately ripped (confidence 2) [83ACD501] (AR v2)
Copy OK

Track 6

Filename C:Exact Audio CopyStatus QuoThe Frantic Four Reunion 2013 Disc 16. Blue-Eyed Lady.wav

Peak level 96.8 %
Extraction speed 5.7 X
Track quality 100.0 %
Test CRC 52B8EFFA
Copy CRC 52B8EFFA
Accurately ripped (confidence 2) [9A197599] (AR v2)
Copy OK

Track 7

Filename C:Exact Audio CopyStatus QuoThe Frantic Four Reunion 2013 Disc 17. Little Lady.wav

Peak level 96.8 %
Extraction speed 5.6 X
Track quality 100.0 %
Test CRC C40022F6
Copy CRC C40022F6
Accurately ripped (confidence 2) [69B889BF] (AR v2)
Copy OK

Track 8

Filename C:Exact Audio CopyStatus QuoThe Frantic Four Reunion 2013 Disc 18. Most Of The Time.wav

Peak level 96.8 %
Extraction speed 5.9 X
Track quality 100.0 %
Test CRC ADEABD34
Copy CRC ADEABD34
Accurately ripped (confidence 2) [6CE05EE9] (AR v2)
Copy OK

Track 9

Filename C:Exact Audio CopyStatus QuoThe Frantic Four Reunion 2013 Disc 19. (April) Spring, Summer and Wednesdays.wav

Peak level 96.8 %
Extraction speed 6.2 X
Track quality 100.0 %
Test CRC 92E7A92C
Copy CRC 92E7A92C
Accurately ripped (confidence 2) [43025692] (AR v2)
Copy OK

Track 10

Filename C:Exact Audio CopyStatus QuoThe Frantic Four Reunion 2013 Disc 110. Railroad.wav

Peak level 96.8 %
Extraction speed 6.6 X
Track quality 100.0 %
Test CRC 34998095
Copy CRC 34998095
Accurately ripped (confidence 2) [662E21E6] (AR v2)
Copy OK

Track 11

Filename C:Exact Audio CopyStatus QuoThe Frantic Four Reunion 2013 Disc 111. Oh Baby.wav

Peak level 96.8 %
Extraction speed 6.9 X
Track quality 100.0 %
Test CRC 27FAF5E3
Copy CRC 27FAF5E3
Accurately ripped (confidence 2) [91CDE1BA] (AR v2)
Copy OK

All tracks accurately ripped

No errors occurred

End of status report

==== Log checksum 459FEE7BA22D89E6F20697D7DDDE796234A1FAD2B1E31C68E4F4A2FDF301E067 ====

DR log CD1
foobar2000 1.2 / Dynamic Range Meter 1.1.1
log date: 2016-12-27 18:26:16

––––––––––––––––––––––––––––––––––––––––
Analyzed: Status Quo / The Frantic Four Reunion
––––––––––––––––––––––––––––––––––––––––

DR Peak RMS Duration Track
––––––––––––––––––––––––––––––––––––––––
DR9 -0.28 dB -10.76 dB 4:21 01-Junior’s Wailing
DR9 -0.28 dB -11.01 dB 4:21 02-Backwater
DR10 -0.28 dB -12.43 dB 4:56 03-Just Take Me
DR9 -0.28 dB -11.04 dB 3:47 04-Is There A Better Way
DR11 -0.28 dB -12.35 dB 3:13 05-In My Chair
DR10 -0.28 dB -11.86 dB 3:47 06-Blue-Eyed Lady
DR10 -0.28 dB -11.50 dB 3:14 07-Little Lady
DR11 -0.28 dB -13.59 dB 3:19 08-Most Of The Time
DR10 -0.28 dB -11.79 dB 4:14 09-(April) Spring, Summer and Wednesdays
DR10 -0.28 dB -12.00 dB 5:52 10-Railroad
DR10 -0.28 dB -11.95 dB 4:50 11-Oh Baby
––––––––––––––––––––––––––––––––––––––––

Number of tracks: 11
Official DR value: DR10

Samplerate: 44100 Hz
Channels: 2
Bits per sample: 16
Bitrate: 936 kbps
Codec: FLAC
================================================================================

EAC log CD2
Exact Audio Copy V1.0 beta 3 from 29. August 2011

EAC extraction logfile from 12. April 2016, 1:23

Status Quo / The Frantic Four Reunion 2013 Disc 2

Used drive : HL-DT-STDVDRAM GH24NS90 Adapter: 1 ID: 0

Read mode : Secure
Utilize accurate stream : Yes
Defeat audio cache : No
Make use of C2 pointers : Yes

Read offset correction : 6
Overread into Lead-In and Lead-Out : No
Fill up missing offset samples with silence : Yes
Delete leading and trailing silent blocks : No
Null samples used in CRC calculations : Yes
Used interface : Native Win32 interface for Win NT & 2000
Gap handling : Appended to previous track

Used output format : User Defined Encoder
Selected bitrate : 1024 kBit/s
Quality : High
Add ID3 tag : No
Command line compressor : C:Program Files (x86)FLACmetaflac.exe
Additional command line options : -8

TOC of the extracted CD

Track | Start | Length | Start sector | End sector
––––––––––––––––––––––––––––-
1 | 0:00.00 | 5:13.15 | 0 | 23489
2 | 5:13.15 | 5:04.21 | 23490 | 46310
3 | 10:17.36 | 5:27.37 | 46311 | 70872
4 | 15:44.73 | 5:57.46 | 70873 | 97693
5 | 21:42.44 | 6:48.71 | 97694 | 128364
6 | 28:31.40 | 4:27.08 | 128365 | 148397
7 | 32:58.48 | 6:41.53 | 148398 | 178525

Track 1

Filename C:Exact Audio CopyStatus QuoThe Frantic Four Reunion 2013 Disc 21. Forty-Five Hundred Times.wav

Pre-gap length 0:00:02.00

Peak level 96.8 %
Extraction speed 3.8 X
Track quality 100.0 %
Test CRC 7002A464
Copy CRC 7002A464
Cannot be verified as accurate (confidence 4) [69835E42], AccurateRip returned [88241E80] (AR v2)
Copy OK

Track 2

Filename C:Exact Audio CopyStatus QuoThe Frantic Four Reunion 2013 Disc 22. Rain.wav

Peak level 96.8 %
Extraction speed 4.3 X
Track quality 100.0 %
Test CRC B5323AB8
Copy CRC B5323AB8
Cannot be verified as accurate (confidence 4) [46291FDB], AccurateRip returned [25A38B26] (AR v2)
Copy OK

Track 3

Filename C:Exact Audio CopyStatus QuoThe Frantic Four Reunion 2013 Disc 23. Big Fat Mama.wav

Peak level 96.8 %
Extraction speed 4.8 X
Track quality 100.0 %
Test CRC 2B5AC6B8
Copy CRC 2B5AC6B8
Cannot be verified as accurate (confidence 4) [CF7824F0], AccurateRip returned [6E9C35EF] (AR v2)
Copy OK

Track 4

Filename C:Exact Audio CopyStatus QuoThe Frantic Four Reunion 2013 Disc 24. Down Down.wav

Peak level 96.8 %
Extraction speed 5.4 X
Track quality 100.0 %
Test CRC 67B69242
Copy CRC 67B69242
Cannot be verified as accurate (confidence 4) [3FF51862], AccurateRip returned [8F87D029] (AR v2)
Copy OK

Track 5

Filename C:Exact Audio CopyStatus QuoThe Frantic Four Reunion 2013 Disc 25. Roadhouse Blues.wav

Peak level 96.8 %
Extraction speed 5.9 X
Track quality 100.0 %
Test CRC 7433232D
Copy CRC 7433232D
Cannot be verified as accurate (confidence 4) [0823F06A], AccurateRip returned [D82FF683] (AR v2)
Copy OK

Track 6

Filename C:Exact Audio CopyStatus QuoThe Frantic Four Reunion 2013 Disc 26. Don’t Waste My Time.wav

Peak level 96.8 %
Extraction speed 6.3 X
Track quality 100.0 %
Test CRC 5494617D
Copy CRC 5494617D
Cannot be verified as accurate (confidence 4) [C1DBB33F], AccurateRip returned [B1A34D1B] (AR v2)
Copy OK

Track 7

Filename C:Exact Audio CopyStatus QuoThe Frantic Four Reunion 2013 Disc 27. Bye Bye Johnny.wav

Peak level 96.8 %
Extraction speed 6.5 X
Track quality 100.0 %
Test CRC 0E81064D
Copy CRC 0E81064D
Cannot be verified as accurate (confidence 4) [C2356378], AccurateRip returned [E8BC3B98] (AR v2)
Copy OK

No tracks could be verified as accurate
You may have a different pressing from the one(s) in the database

No errors occurred

End of status report

==== Log checksum 7D03D6D1A46ED81B4A439FD7E7CDF852CC96C38D72BC8767D8A49445194E33F0 ====

DR log CD2
foobar2000 1.2 / Dynamic Range Meter 1.1.1
log date: 2016-12-27 18:26:16

––––––––––––––––––––––––––––––––––––––––
Analyzed: Status Quo / The Frantic Four Reunion
––––––––––––––––––––––––––––––––––––––––

DR Peak RMS Duration Track
––––––––––––––––––––––––––––––––––––––––
DR9 -0.28 dB -10.76 dB 4:21 01-Junior’s Wailing
DR9 -0.28 dB -11.01 dB 4:21 02-Backwater
DR10 -0.28 dB -12.43 dB 4:56 03-Just Take Me
DR9 -0.28 dB -11.04 dB 3:47 04-Is There A Better Way
DR11 -0.28 dB -12.35 dB 3:13 05-In My Chair
DR10 -0.28 dB -11.86 dB 3:47 06-Blue-Eyed Lady
DR10 -0.28 dB -11.50 dB 3:14 07-Little Lady
DR11 -0.28 dB -13.59 dB 3:19 08-Most Of The Time
DR10 -0.28 dB -11.79 dB 4:14 09-(April) Spring, Summer and Wednesdays
DR10 -0.28 dB -12.00 dB 5:52 10-Railroad
DR10 -0.28 dB -11.95 dB 4:50 11-Oh Baby
––––––––––––––––––––––––––––––––––––––––

Number of tracks: 11
Official DR value: DR10

Samplerate: 44100 Hz
Channels: 2
Bits per sample: 16
Bitrate: 936 kbps
Codec: FLAC
================================================================================

Status Quo - The Frantic Four Reunion, Live at Hammersmith - Back 2 SQ.1 (2013) 2 CDs

All thanks to original releaser – saintsmon

More interesting music in My Blog

Status Quo – The Frantic Four Reunion, Live at Hammersmith – Back 2 SQ.1 (2013) 2 CDs Download, Warez, DDL, Free, Full Album, Torrent, Legal.

Download


  • Recent Posts

  • Recent Tags