Status Quo – Rock 'Til You Drop (1991)

Download
Status Quo - Rock 'Til You Drop (1991)

Status Quo – Rock ‘Til You Drop (1991)
Rock | 1cd | EAC Rip | Flac + Cue + Log | covers
Vertigo, 510 341-2 | rel: 1991 | 570Mb

Rock ’til You Drop is the twentieth studio album by English rock band Status Quo and it is the bands last album to be released on the Vertigo label after nearly 20 years. Singer and lead-guitarist Francis Rossi himself produced the album.

Track listing
01. Like A Zombie (5:01)
02. All We Really Wanna Do (Polly) (3:45)
03. Fakin’ The Blues (4:27)
04. One Man Band (4:28)
05. Rock ‘Til You Drop (3:16)
06. Can’t Give You More (4:24)
07. Warning Shot (3:57)
08. Let’s Work Together (3:39)
09. Bring It On Home (3:10)
10. No Problems (4:46)
11. Good Sign (4:14)
12. Tommy (3:50)
13. Nothing Comes Easy (5:46)
14. Fame Or Money (4:05)
15. Price Of Love (3:38)
16. Forty Five Hundred Times (12:56)

Personnel
– Francis Rossi – vocals & lead guitar
– Rick Parfitt – vocals & rhythm guitar
– Andy Bown – keyboard/piano
– John Edwards – bass guitar
– Jeff Rich – drums

eac log:
EAC extraction logfile from 25. November 2006, 2:29 for CD
Status Quo / Rock ‘Til You Drop

Used drive : _NEC DVD_RW ND-3500AG Adapter: 0 ID: 1
Read mode : Secure with NO C2, accurate stream, disable cache
Read offset correction : 48
Overread into Lead-In and Lead-Out : No

Used output format : Internal WAV Routines
44.100 Hz; 16 Bit; Stereo

Other options :
Fill up missing offset samples with silence : Yes
Delete leading and trailing silent blocks : No
Installed external ASPI interface

Track 1
Filename H:STATUS QUOStatus Quo – Rock ‘Til You Drop (1991) [FLAC]1 – Like A Zombie.wav

Pre-gap length 0:00:02.00

Peak level 93.6 %
Track quality 100.0 %
Test CRC 6ECE1B7A
Copy CRC 6ECE1B7A
Copy OK

Track 2
Filename H:STATUS QUOStatus Quo – Rock ‘Til You Drop (1991) [FLAC]2 – All We Really Wanna Do (Polly).wav

Pre-gap length 0:00:01.80

Peak level 88.8 %
Track quality 100.0 %
Test CRC E7217D11
Copy CRC E7217D11
Copy OK

Track 3
Filename H:STATUS QUOStatus Quo – Rock ‘Til You Drop (1991) [FLAC]3 – Fakin’ The Blues.wav

Pre-gap length 0:00:01.53

Peak level 93.1 %
Track quality 100.0 %
Test CRC 55C5E403
Copy CRC 55C5E403
Copy OK

Track 4
Filename H:STATUS QUOStatus Quo – Rock ‘Til You Drop (1991) [FLAC]4 – One Man Band.wav

Pre-gap length 0:00:01.80

Peak level 89.8 %
Track quality 100.0 %
Test CRC CBDC86F6
Copy CRC CBDC86F6
Copy OK

Track 5
Filename H:STATUS QUOStatus Quo – Rock ‘Til You Drop (1991) [FLAC]5 – Rock ‘Til You Drop.wav

Pre-gap length 0:00:02.93

Peak level 79.6 %
Track quality 99.9 %
Test CRC E5C3562C
Copy CRC E5C3562C
Copy OK

Track 6
Filename H:STATUS QUOStatus Quo – Rock ‘Til You Drop (1991) [FLAC]6 – Can’t Give You More.wav

Pre-gap length 0:00:04.66

Peak level 92.7 %
Track quality 100.0 %
Test CRC 41508355
Copy CRC 41508355
Copy OK

Track 7
Filename H:STATUS QUOStatus Quo – Rock ‘Til You Drop (1991) [FLAC]7 – Warning Shot.wav

Pre-gap length 0:00:02.86

Peak level 75.9 %
Track quality 99.9 %
Test CRC 5D5125E3
Copy CRC 5D5125E3
Copy OK

Track 8
Filename H:STATUS QUOStatus Quo – Rock ‘Til You Drop (1991) [FLAC]8 – Let’s Work Together.wav

Pre-gap length 0:00:01.00

Peak level 76.1 %
Track quality 100.0 %
Test CRC 233B3706
Copy CRC 233B3706
Copy OK

Track 9
Filename H:STATUS QUOStatus Quo – Rock ‘Til You Drop (1991) [FLAC]9 – Bring It On Home.wav

Pre-gap length 0:00:01.96

Peak level 83.1 %
Track quality 99.9 %
Test CRC 4FF435AC
Copy CRC 4FF435AC
Copy OK

Track 10
Filename H:STATUS QUOStatus Quo – Rock ‘Til You Drop (1991) [FLAC]10 – No Problems.wav

Pre-gap length 0:00:00.53

Peak level 94.1 %
Track quality 100.0 %
Test CRC 6710BA00
Copy CRC 6710BA00
Copy OK

Track 11
Filename H:STATUS QUOStatus Quo – Rock ‘Til You Drop (1991) [FLAC]11 – Good Sign.wav

Pre-gap length 0:00:04.56

Peak level 92.4 %
Track quality 100.0 %
Test CRC 5429F7FB
Copy CRC 5429F7FB
Copy OK

Track 12
Filename H:STATUS QUOStatus Quo – Rock ‘Til You Drop (1991) [FLAC]12 – Tommy.wav

Pre-gap length 0:00:00.56

Peak level 85.9 %
Track quality 100.0 %
Test CRC 08454664
Copy CRC 08454664
Copy OK

Track 13
Filename H:STATUS QUOStatus Quo – Rock ‘Til You Drop (1991) [FLAC]13 – Nothing Comes Easy.wav

Pre-gap length 0:00:00.13

Peak level 93.7 %
Track quality 100.0 %
Test CRC CA1CB390
Copy CRC CA1CB390
Copy OK

Track 14
Filename H:STATUS QUOStatus Quo – Rock ‘Til You Drop (1991) [FLAC]14 – Fame Or Money.wav

Peak level 94.1 %
Track quality 100.0 %
Test CRC 01031034
Copy CRC 01031034
Copy OK

Track 15
Filename H:STATUS QUOStatus Quo – Rock ‘Til You Drop (1991) [FLAC]15 – Price Of Love.wav

Pre-gap length 0:00:00.33

Peak level 92.2 %
Track quality 100.0 %
Test CRC 6E72475E
Copy CRC 6E72475E
Copy OK

Track 16
Filename H:STATUS QUOStatus Quo – Rock ‘Til You Drop (1991) [FLAC]16 – Forty Five Hundred Times.wav

Pre-gap length 0:00:00.86

Peak level 93.1 %
Track quality 100.0 %
Test CRC 5DF3A386
Copy CRC 5DF3A386
Copy OK

No errors occured

End of status report

cuetools report:
[CUETools log; Date: 2017. 07. 24. 10:24:41; Version: 2.1.6]
[CTDB TOCID: r6oI.9fs4Rb2jMr9jgbtMoNFiLs-] found.
Track | CTDB Status
1 | (33/34) Accurately ripped
2 | (33/34) Accurately ripped
3 | (32/34) Accurately ripped
4 | (33/34) Accurately ripped
5 | (33/34) Accurately ripped
6 | (33/34) Accurately ripped
7 | (33/34) Accurately ripped
8 | (33/34) Accurately ripped
9 | (33/34) Accurately ripped
10 | (33/34) Accurately ripped
11 | (33/34) Accurately ripped
12 | (33/34) Accurately ripped
13 | (33/34) Accurately ripped
14 | (32/34) Accurately ripped
15 | (33/34) Accurately ripped
16 | (32/34) Accurately ripped
[AccurateRip ID: 0027e8d8-01e0409a-d311cb10] found.
Track [ CRC | V2 ] Status
01 [046b6bfd|d4f6bd7b] (00+00/38) No match
02 [8339aa1b|e82a5f2f] (00+00/37) No match
03 [da0b69da|2a82dea8] (00+00/37) No match
04 [f8637731|bdb08609] (00+00/37) No match
05 [d1843f3f|ba4a74f5] (00+00/35) No match
06 [03fb34c7|db047446] (00+00/38) No match
07 [346b8ddf|f98d8759] (00+00/36) No match
08 [b5177d06|b748fa7d] (00+00/37) No match
09 [79fed1e4|56d1cb05] (00+00/33) No match
10 [dd97a3b6|8e4a2aa1] (00+00/33) No match
11 [e32e95d0|db5ddb92] (00+00/34) No match
12 [8d2cc000|db0cfd07] (00+00/35) No match
13 [dfab945d|00cbf646] (00+00/33) No match
14 [40733058|6393da5a] (00+00/35) No match
15 [60ace64a|04547477] (00+00/36) No match
16 [f9b467ef|b48e7abe] (00+00/30) No match
Offsetted by 681:
01 [326ea50e] (16/38) Accurately ripped
02 [72b9914a] (16/37) Accurately ripped
03 [0fada86a] (15/37) Accurately ripped
04 [52e1da29] (15/37) Accurately ripped
05 [2cfb6912] (14/35) Accurately ripped
06 [5e1b2cb1] (16/38) Accurately ripped
07 [d49a30da] (14/36) Accurately ripped
08 [5f218626] (15/37) Accurately ripped
09 [2d5e706e] (12/33) Accurately ripped
10 [043f20f5] (11/33) Accurately ripped
11 [7624b39d] (12/34) Accurately ripped
12 [29c63143] (13/35) Accurately ripped
13 [45e3c832] (12/33) Accurately ripped
14 [7145ae4c] (14/35) Accurately ripped
15 [710fee8d] (14/36) Accurately ripped
16 [b23f9ab0] (11/30) Accurately ripped
Offsetted by -18:
01 [ddfcd11b] (02/38) Accurately ripped
02 [12e2d47d] (02/37) Accurately ripped
03 [e50840ba] (02/37) Accurately ripped
04 [99855741] (02/37) Accurately ripped
05 [61b4f959] (02/35) Accurately ripped
06 [b3c8bd73] (02/38) Accurately ripped
07 [eda617a9] (02/36) Accurately ripped
08 [040d12c6] (02/37) Accurately ripped
09 [17a69550] (02/33) Accurately ripped
10 [8b5f55f8] (02/33) Accurately ripped
11 [3f281476] (02/34) Accurately ripped
12 [25cb173a] (02/35) Accurately ripped
13 [c5f0fc8f] (02/33) Accurately ripped
14 [cf84d82c] (02/35) Accurately ripped
15 [0182cf84] (02/36) Accurately ripped
16 [744355ad] (00/30) No match (V2 was not tested)

Track Peak [ CRC32 ] [W/O NULL] [ LOG ]
– 94,1 [1BD4697A] [C0D82D66]
01 93,6 [6ECE1B7A] [188727EA] CRC32
02 88,8 [E7217D11] [8A986FBD] CRC32
03 93,1 [55C5E403] [F22F58EC] CRC32
04 89,8 [CBDC86F6] [31B92CC3] CRC32
05 79,6 [E5C3562C] [E1BE1FC3] CRC32
06 92,7 [41508355] [EAE54952] CRC32
07 75,9 [5D5125E3] [9BA06391] CRC32
08 76,1 [233B3706] [DA0A6445] CRC32
09 83,1 [4FF435AC] [F07B1CC6] CRC32
10 94,1 [6710BA00] [3C3BB2D8] CRC32
11 92,4 [5429F7FB] [E34E1FE6] CRC32
12 85,9 [08454664] [EA0CA0C2] CRC32
13 93,7 [CA1CB390] [7E01739E] CRC32
14 94,1 [01031034] [AD66FAFF] CRC32
15 92,2 [6E72475E] [E1051B76] CRC32
16 93,1 [5DF3A386] [AAC1F368] CRC32

Thx to oak13

Status Quo – Rock 'Til You Drop (1991) Download, Warez, DDL, Free, Full Album, Torrent, Legal.

Download