Status Quo – Ain't Complaining (1988)

Download
Status Quo - Ain't Complaining (1988)

Status Quo – Ain’t Complaining (1988)
Rock | 1cd | EAC Rip | Flac + Cue + Log | covers
Vertigo, 834 604-2 | rel: 1988 | 385Mb

Ain’t Complaining is the eighteenth studio album by English rock band Status Quo. Initially released on the Vertigo label on 13 June 1988, it was the group’s first album on that label to fall short of the UK Top 10, reaching no higher than its entry position of No. 12. It spawned three singles, namely the title track, the ballad "Who Gets the Love?", and the only Top 10 hit among them, the jaunty "Burning Bridges", which essentially replicated the melody of the traditional folk song "Darby Kelly" within its distinctive instrumental breaks, without crediting it as such. ~wikipedia

Track listing
01. Ain’t Complaining (4:39)
02. Everytime I Think Of You (3:48)
03. One For The Money (4:51)
04. Another Shipwreck (3:47)
05. Don’t Mind If I Do (4:40)
06. I Know You’re Leaving (4:42)
07. Cross That Bridge (3:30)
08. Cream Of The Crop (4:02)
09. The Loving Game (4:23)
10. Who Gets The Love (5:32)
11. Burning Bridges (4:19)
12. Magic (3:51)

Personnel
– Francis Rossi – vocals and lead guitar
– Rick Parfitt – vocals and guitar
– John Edwards – bass
– Andy Bown – keyboards
– Jeff Rich – drums

eac log:
EAC extraction logfile from 15. November 2006, 19:38 for CD
Status Quo / Ain’t Complaining

Used drive : _NEC DVD_RW ND-3500AG Adapter: 0 ID: 1
Read mode : Secure with NO C2, accurate stream, disable cache
Read offset correction : 48
Overread into Lead-In and Lead-Out : No

Used output format : Internal WAV Routines
44.100 Hz; 16 Bit; Stereo

Other options :
Fill up missing offset samples with silence : Yes
Delete leading and trailing silent blocks : No
Installed external ASPI interface

Track 1
Filename H:STATUS QUOStatus Quo – Ain’t Complaining (1988) [FLAC]1 – Ain’t Complaining.wav

Pre-gap length 0:00:02.44

Peak level 100.0 %
Track quality 100.0 %
Test CRC D9A9B65C
Copy CRC D9A9B65C
Copy OK

Track 2
Filename H:STATUS QUOStatus Quo – Ain’t Complaining (1988) [FLAC]2 – Everytime I Think Of You.wav

Pre-gap length 0:00:00.04

Peak level 100.0 %
Track quality 99.9 %
Test CRC D096EE7A
Copy CRC D096EE7A
Copy OK

Track 3
Filename H:STATUS QUOStatus Quo – Ain’t Complaining (1988) [FLAC]3 – One For The Money.wav

Peak level 100.0 %
Track quality 100.0 %
Test CRC 8C3ED2A1
Copy CRC 8C3ED2A1
Copy OK

Track 4
Filename H:STATUS QUOStatus Quo – Ain’t Complaining (1988) [FLAC]4 – Another Shipwreck.wav

Peak level 100.0 %
Track quality 99.9 %
Test CRC C4C49BF5
Copy CRC C4C49BF5
Copy OK

Track 5
Filename H:STATUS QUOStatus Quo – Ain’t Complaining (1988) [FLAC]5 – Don’t Mind If I Do.wav

Pre-gap length 0:00:00.37

Peak level 100.0 %
Track quality 100.0 %
Test CRC 0E653985
Copy CRC 0E653985
Copy OK

Track 6
Filename H:STATUS QUOStatus Quo – Ain’t Complaining (1988) [FLAC]6 – I Know You’re Leaving.wav

Pre-gap length 0:00:00.86

Peak level 100.0 %
Track quality 100.0 %
Test CRC C054553F
Copy CRC C054553F
Copy OK

Track 7
Filename H:STATUS QUOStatus Quo – Ain’t Complaining (1988) [FLAC]7 – Cross That Bridge.wav

Pre-gap length 0:00:02.16

Peak level 100.0 %
Track quality 100.0 %
Test CRC 3A17CD06
Copy CRC 3A17CD06
Copy OK

Track 8
Filename H:STATUS QUOStatus Quo – Ain’t Complaining (1988) [FLAC]8 – Cream Of The Crop.wav

Peak level 100.0 %
Track quality 100.0 %
Test CRC 27C7B7D8
Copy CRC 27C7B7D8
Copy OK

Track 9
Filename H:STATUS QUOStatus Quo – Ain’t Complaining (1988) [FLAC]9 – The Loving Game.wav

Peak level 100.0 %
Track quality 100.0 %
Test CRC 62401EA5
Copy CRC 62401EA5
Copy OK

Track 10
Filename H:STATUS QUOStatus Quo – Ain’t Complaining (1988) [FLAC]10 – Who Gets The Love.wav

Pre-gap length 0:00:00.33

Peak level 100.0 %
Track quality 100.0 %
Test CRC 956B9514
Copy CRC 956B9514
Copy OK

Track 11
Filename H:STATUS QUOStatus Quo – Ain’t Complaining (1988) [FLAC]11 – Burning Bridges.wav

Peak level 100.0 %
Track quality 100.0 %
Test CRC 7D9840F7
Copy CRC 7D9840F7
Copy OK

Track 12
Filename H:STATUS QUOStatus Quo – Ain’t Complaining (1988) [FLAC]12 – Magic.wav

Peak level 100.0 %
Track quality 100.0 %
Test CRC 2276E225
Copy CRC 2276E225
Copy OK

No errors occured

End of status report

cuetools report:
[CUETools log; Date: 2017. 02. 06. 22:02:25; Version: 2.1.6]
Pregap length 00:00:33.
[CTDB TOCID: RMoXZuaBLnAUM5MHDSoPQ66wesc-] found.
Track | CTDB Status
1 | (30/33) Accurately ripped
2 | (31/33) Accurately ripped
3 | (31/33) Accurately ripped
4 | (31/33) Accurately ripped
5 | (25/33) Accurately ripped, or (1/33) differs in 3467 samples @00:29:54-00:29:55,00:30:29-00:30:30,00:30:42-00:30:43,00:30:54-00:30:55,00:31:29-00:31:30,00:32:17-00:32:18,00:32:30,00:32:42-00:32:43,00:32:55-00:32:56,00:32:67-00:32:68,00:33:17-00:33:18,00:33:30-00:33:31,00:33:42-00:33:43,00:33:55-00:33:56,00:33:67-00:33:68,00:34:43,00:34:68-00:34:69,00:35:05-00:35:06,00:35:18-00:35:19,00:35:30-00:35:31,00:35:43-00:35:44,00:35:55-00:35:56,00:35:68-00:35:69,00:36:05-00:36:06,00:36:18-00:36:19,00:36:68-00:36:69,00:37:06-00:37:07,00:37:31-00:37:32,00:37:43-00:37:44,00:37:56-00:37:57,00:37:69,00:38:06-00:38:07,00:38:19-00:38:20,00:38:31-00:38:32,00:38:56-00:38:57,00:38:69-00:38:70,00:39:06-00:39:07,00:39:19-00:39:20,00:39:44-00:39:45,00:40:07-00:40:08,00:40:32-00:40:33, or (1/33) differs in 6685 samples @00:29:66-00:29:67,00:30:04-00:30:05,00:30:17,00:30:29-00:30:30,00:30:42-00:30:43,00:30:54-00:30:55,00:31:17,00:32:17-00:32:18,00:32:30,00:32:42-00:32:43,00:32:55-00:32:56,00:32:67-00:32:68,00:33:17-00:33:18,00:33:30-00:33:31,00:33:42-00:33:43,00:33:55-00:33:56,00:33:67-00:33:68,00:34:05-00:34:06,00:34:17-00:34:18,00:34:30-00:34:31,00:34:43,00:34:55-00:34:56,00:34:68-00:34:69,00:35:05-00:35:06,00:35:18-00:35:19,00:35:30-00:35:31,00:35:43-00:35:44,00:35:55-00:35:56,00:35:68-00:35:69,00:36:05-00:36:06,00:36:18-00:36:19,00:36:31,00:36:43-00:36:44,00:36:56-00:36:57,00:36:68-00:36:69,00:37:06-00:37:07,00:37:18-00:37:19,00:37:31-00:37:32,00:37:43-00:37:44,00:37:56-00:37:57,00:37:69,00:38:06-00:38:07,00:38:19-00:38:20,00:38:31-00:38:32,00:38:56-00:38:57,00:38:69-00:38:70,00:39:06-00:39:07,00:39:19-00:39:20,00:39:32,00:39:44-00:39:45,00:39:57-00:39:58,00:39:69-00:39:70,00:40:07-00:40:08,00:40:19-00:40:20,00:40:32-00:40:33,00:40:57-00:40:58,00:40:70,00:41:07-00:41:08, or (1/33) differs in 7052 samples @00:28:16-00:28:17,00:30:04-00:30:05,00:30:17-00:30:18,00:30:29-00:30:30,00:30:42-00:30:43,00:30:54-00:30:55,00:32:04-00:32:05,00:32:17-00:32:18,00:32:30,00:32:42-00:32:43,00:32:55-00:32:56,00:32:67-00:32:68,00:33:17-00:33:18,00:33:30-00:33:31,00:33:42-00:33:43,00:33:55-00:33:56,00:33:67-00:33:68,00:34:05-00:34:06,00:34:17-00:34:18,00:34:30-00:34:31,00:34:43,00:34:55-00:34:56,00:34:68-00:34:69,00:35:05-00:35:06,00:35:18-00:35:19,00:35:30-00:35:31,00:35:43-00:35:44,00:35:55-00:35:56,00:35:68-00:35:69,00:36:05-00:36:06,00:36:18-00:36:19,00:36:31,00:36:43-00:36:44,00:36:56-00:36:57,00:36:68-00:36:69,00:37:06-00:37:07,00:37:18-00:37:19,00:37:31-00:37:32,00:37:43-00:37:44,00:37:56-00:37:57,00:37:69,00:38:06-00:38:07,00:38:19-00:38:20,00:38:31-00:38:32,00:38:56-00:38:57,00:39:06-00:39:07,00:39:19-00:39:20,00:39:32,00:39:44-00:39:45,00:39:57-00:39:58,00:39:69-00:39:70,00:40:07-00:40:08,00:40:19-00:40:20,00:40:32-00:40:33,00:40:57-00:40:58,00:40:70,00:41:07-00:41:08
6 | (31/33) Accurately ripped
7 | (31/33) Accurately ripped
8 | (31/33) Accurately ripped
9 | (31/33) Accurately ripped
10 | (31/33) Accurately ripped
11 | (31/33) Accurately ripped
12 | (31/33) Accurately ripped
[AccurateRip ID: 00174ef6-00d98c7d-8c0c3e0c] found.
Track [ CRC | V2 ] Status
01 [299fd9af|ec8d3a91] (00+04/47) Accurately ripped
02 [a0be7874|b7b74eb5] (00+04/47) Accurately ripped
03 [cd43a5ee|7190da3d] (00+04/48) Accurately ripped
04 [2fe424e5|a2798b49] (00+04/48) Accurately ripped
05 [a638a447|22545003] (00+04/47) Accurately ripped
06 [3538b490|beeb70c3] (00+04/47) Accurately ripped
07 [0dfaa3fb|bde1a8ed] (00+04/47) Accurately ripped
08 [7ebacc15|4c45a4a3] (00+04/47) Accurately ripped
09 [f05c9fbc|1278ebdb] (00+04/47) Accurately ripped
10 [c8ce8999|0237ba48] (00+04/46) Accurately ripped
11 [1a961a68|8c99d905] (00+04/46) Accurately ripped
12 [b735f403|5f257f60] (00+04/45) Accurately ripped
Offsetted by 317:
01 [8c48aee3] (23/47) Accurately ripped
02 [4f3ac69a] (23/47) Accurately ripped
03 [b35864de] (24/48) Accurately ripped
04 [0191256a] (24/48) Accurately ripped
05 [4ce56d39] (23/47) Accurately ripped
06 [ce59c02d] (23/47) Accurately ripped
07 [a0b71089] (23/47) Accurately ripped
08 [323de543] (23/47) Accurately ripped
09 [8bd0658a] (23/47) Accurately ripped
10 [75b36dac] (23/46) Accurately ripped
11 [52c9cd25] (22/46) Accurately ripped
12 [a0011da7] (21/45) Accurately ripped

Track Peak [ CRC32 ] [W/O NULL] [ LOG ]
– 100,0 [CCA4DF74] [EAEE680C]
01 100,0 [D9A9B65C] [18AA34F7] CRC32
02 100,0 [D096EE7A] [A7AED3DF] CRC32
03 100,0 [8C3ED2A1] [8186AD05] CRC32
04 100,0 [C4C49BF5] [684A35FF] CRC32
05 100,0 [0E653985] [8EDB3063] CRC32
06 100,0 [C054553F] [C0DDCB64] CRC32
07 100,0 [3A17CD06] [3A2EFF99] CRC32
08 100,0 [27C7B7D8] [B013E3E6] CRC32
09 100,0 [62401EA5] [18AB049D] CRC32
10 100,0 [956B9514] [F27ABF93] CRC32
11 100,0 [7D9840F7] [2C6E6028] CRC32
12 100,0 [2276E225] [8E70BD7E] CRC32

Thx to oak13

Status Quo – Ain't Complaining (1988) Download, Warez, DDL, Free, Full Album, Torrent, Legal.

Download