Stacy Jones – Love Is Everywhere (2017)

Download
Stacy Jones - Love Is Everywhere (2017)

Stacy Jones – Love Is Everywhere
EAC Rip | FLAC (tracks)+cue, log, m3u, front cover | 42:34 min | 292 MB
Label: Self Released | Tracks: 11 | Rls.date: 2017
Blues Rock

Stacy Jones is the winner of the 2015 IMEA (International Music and Entertainment Association) award for Best Blues Song “Can’t Do Nothin’ Right” off her newest album Whiskey, Wine, & Water. She is continually nominated for “Best of the Blues” awards in songwriting, performance, harmonica, guitar and winning vocalist of the year. She has performed at the Chicago Blues Festival, SXSW, juke joints in Mississippi, river boats in California, headlined festivals, and shared stages with Elvin Bishop, Charlie Musselwhite, Lee Oskar, and many other legends. Her music has been described as “A Whiskey & Water Baptism that lace Blues and Rock edges.” “With her feet firmly planted in roots based music, Stacy Jones pays homage to the blues but experiments by mixing in some mild-Americana and subtle country licks. Dynamic vocals fueled by powerful lyrics.” “the rolling thunder blues of Howlin’ Wolf mixed with the honesty of Lucinda Williams”

TRACKLIST
1. Mojo Potion 61 And 49 (04:15)
2. Wait for Heaven (04:49)
3. Can’t Find Love (03:27)
4. Stomp Jump Boogie (03:45)
5. Can’t You Be Mine (05:10)
6. I Fell in Love (03:30)
7. Love Is Everywhere (04:46)
8. One Stop Light (03:12)
9. Gotta Get over You (02:34)
10. Tough Girls Never Cry (03:19)
11. I’ll Be on My Way (03:47)

EAC Log
Exact Audio Copy V1.3 from 2. September 2016

EAC extraction logfile from 24. July 2017, 18:29

Stacy Jones / Love Is Everywhere

Used drive : TSSTcorpCD/DVDW SH-S182M Adapter: 1 ID: 0

Read mode : Secure
Utilize accurate stream : Yes
Defeat audio cache : Yes
Make use of C2 pointers : No

Read offset correction : 6
Overread into Lead-In and Lead-Out : No
Fill up missing offset samples with silence : Yes
Delete leading and trailing silent blocks : No
Null samples used in CRC calculations : Yes
Used interface : Native Win32 interface for Win NT & 2000
Gap handling : Appended to previous track

Used output format : User Defined Encoder
Selected bitrate : 1024 kBit/s
Quality : High
Add ID3 tag : No
Command line compressor : C:Program FilesExact Audio CopyFLACFLAC.EXE
Additional command line options : -6 -V -T "ARTIST=%artist%" -T "TITLE=%title%" -T "ALBUM=%albumtitle%" -T "DATE=%year%" -T "TRACKNUMBER=%tracknr%" -T "GENRE=%genre%" -T "COMMENT=%comment%" -T "BAND=%albuminterpret%" -T "ALBUMARTIST=%albuminterpret%" -T "COMPOSER=%composer%" %haslyrics%–tag-from-file=LYRICS="%lyricsfile%"%haslyrics% -T "DISCNUMBER=%cdnumber%" -T "TOTALDISCS=%totalcds%" -T "TOTALTRACKS=%numtracks%" %hascover%–picture="%coverfile%"%hascover% %source% -o %dest%

TOC of the extracted CD

Track | Start | Length | Start sector | End sector
––––––––––––––––––––––––––––-
1 | 0:00.00 | 4:15.36 | 0 | 19160
2 | 4:15.36 | 4:49.41 | 19161 | 40876
3 | 9:05.02 | 3:27.71 | 40877 | 56472
4 | 12:32.73 | 3:45.52 | 56473 | 73399
5 | 16:18.50 | 5:10.66 | 73400 | 96715
6 | 21:29.41 | 3:30.65 | 96716 | 112530
7 | 25:00.31 | 4:46.14 | 112531 | 133994
8 | 29:46.45 | 3:12.00 | 133995 | 148394
9 | 32:58.45 | 2:34.08 | 148395 | 159952
10 | 35:32.53 | 3:19.29 | 159953 | 174906
11 | 38:52.07 | 3:47.14 | 174907 | 191945

Track 1

Filename F:Nueva carpeta (3)1 Mojo Potion.wav

Pre-gap length 0:00:02.00

Peak level 98.5 %
Extraction speed 2.5 X
Track quality 100.0 %
Test CRC 355FF9B6
Copy CRC 355FF9B6
Track not present in AccurateRip database
Copy OK

Track 2

Filename F:Nueva carpeta (3)2 Wait For Heaven.wav

Peak level 97.4 %
Extraction speed 2.8 X
Track quality 100.0 %
Test CRC B817B851
Copy CRC B817B851
Track not present in AccurateRip database
Copy OK

Track 3

Filename F:Nueva carpeta (3)3 Can’t Find Love.wav

Peak level 97.3 %
Extraction speed 2.9 X
Track quality 100.0 %
Test CRC 07313E7A
Copy CRC 07313E7A
Track not present in AccurateRip database
Copy OK

Track 4

Filename F:Nueva carpeta (3)4 Stomp Jump Boogie.wav

Peak level 98.2 %
Extraction speed 3.1 X
Track quality 100.0 %
Test CRC 870626BB
Copy CRC 870626BB
Track not present in AccurateRip database
Copy OK

Track 5

Filename F:Nueva carpeta (3)5 Can’t You Be Mine.wav

Peak level 97.7 %
Extraction speed 3.4 X
Track quality 100.0 %
Test CRC 9952052D
Copy CRC 9952052D
Track not present in AccurateRip database
Copy OK

Track 6

Filename F:Nueva carpeta (3)6 I Fell In Love.wav

Peak level 97.0 %
Extraction speed 3.4 X
Track quality 100.0 %
Test CRC 42E9C927
Copy CRC 42E9C927
Track not present in AccurateRip database
Copy OK

Track 7

Filename F:Nueva carpeta (3)7 Love Is Everywhere.wav

Peak level 99.6 %
Extraction speed 3.3 X
Track quality 99.9 %
Test CRC 3710FDDC
Copy CRC 3710FDDC
Track not present in AccurateRip database
Copy OK

Track 8

Filename F:Nueva carpeta (3)8 One Stoplight.wav

Peak level 97.2 %
Extraction speed 3.6 X
Track quality 100.0 %
Test CRC 10B500E7
Copy CRC 10B500E7
Track not present in AccurateRip database
Copy OK

Track 9

Filename F:Nueva carpeta (3)9 Gotta Get Over You.wav

Peak level 97.3 %
Extraction speed 3.5 X
Track quality 100.0 %
Test CRC B3DA0912
Copy CRC B3DA0912
Track not present in AccurateRip database
Copy OK

Track 10

Filename F:Nueva carpeta (3)10 Tough Girls Never Cry.wav

Peak level 97.3 %
Extraction speed 3.8 X
Track quality 100.0 %
Test CRC F7836690
Copy CRC F7836690
Track not present in AccurateRip database
Copy OK

Track 11

Filename F:Nueva carpeta (3)11 On My Wa.wav

Peak level 97.6 %
Extraction speed 3.9 X
Track quality 100.0 %
Test CRC FF9302A0
Copy CRC FF9302A0
Track not present in AccurateRip database
Copy OK

None of the tracks are present in the AccurateRip database

No errors occurred

End of status report

–– CUETools DB Plugin V2.1.6

[CTDB TOCID: KE0_e7gMjb5U4S13oVwQHDlMnQI-] disk not present in database
Submit result: KE0_e7gMjb5U4S13oVwQHDlMnQI- has been uploaded

==== Log checksum C16AB716DA30D28A31B9881E28D4371D1659F6AD59F83C3756529DCBBEFD016F ====

Thanks to the Original customer.

Stacy Jones – Love Is Everywhere (2017) Download, Warez, DDL, Free, Full Album, Torrent, Legal.

Download