St. Elmo's Fire – 2 Albums (1998-2001) | ViralVideoPk

Daily Dose of Free Downloads

St. Elmo's Fire – 2 Albums (1998-2001)

Download

St. Elmo's Fire - 2 Albums (1998-2001)

St. Elmo’s Fire – 2 Albums (1998-2001)
EAC Rip | FLAC (image+.cue+log) – 883 MB | MP3 CBR 320 kbps (LAME 3.93) – 331 MB | Covers included
Genre: Progressive Rock | RAR 3% Rec. | Label: Sprawling Productions

St. Elmo’s Fire, a Cleveland-based band existed for about three years from 1979 to 1981. After line-up changes and a few more demo recordings the quintet disbanded in May 1981. Paul Kollar, who by the 90’s had moved to Raleigh, North Carolina, sat down with Mark Helm to work on new and old pieces of the band. The thirst for a reunion led to the establishment of the Sprawling Productions label, on which they released the CD ”Splitting Ions in the Ether” in 1998, a good chance for anyone not owning the band’s rare 1980 vinyl to listen to St. Elmo’s Fire’s innovative sound. Most reviewers mention King Crimson’s "Larks Tongues In Aspic" and "Red" albums when making comparisons. Generally regarded as a long lost treasure and an album that fans of heavy prog should not be without.
In 2001 they released the "Artifacts Of Passion" CD. A very diverse album that really shows just how versatile these guys can be. "Artifacts in Passion" shows only slight King Crimson influences and showcases a diverse arrangement of instruments. In addition to the usual electric guitars, bass, drums, and keys, one finds things like a shofar (an ancient horn instrument), violins, djembe, tabla, etc.

Progarchives

St. Elmo's Fire - 2 Albums (1998-2001)

St. Elmo’s Fire – Splitting Ions in the Ether [Recorded 1980] (1998)
EAC Rip | FLAC (image+.cue+log) – 462 MB | MP3 CBR 320 kbps (LAME 3.93) – 172 MB | Covers (13 MB) included
Genre: Progressive Rock | RAR 3% Rec. | Label: Sprawling Productions (SPL-9801)

Tracklist:
01. Searching for Food
02. Gone to Ground in the Khyber Pass
03. The Balrog
04. Parasites and Bureaucrats
05. Aspen Flambe
06. The Reluctant Bride
07. Fantasy Come Reality
08. The Abduction (Bonus track)
09. The Nuremberg Waltz (Bonus track)

Total time: 01:07:19

EAC log
Exact Audio Copy V0.99 prebeta 5 from 4. May 2009

Отчёт EAC об извлечении, выполненном 3. ноября 2010, 13:58

St. Elmo’s Fire / Splitting Ions in the Ether

Дисковод: TSSTcorpCD/DVDW SH-S182M Adapter: 0 ID: 1

Режим чтения : Достоверность
Использование точного потока : Да
Отключение кэша аудио : Да
Использование указателей C2 : Нет

Коррекция смещения при чтении : 6
Способность читать области Lead-in и Lead-out : Нет
Заполнение пропущенных сэмплов тишиной : Да
Удаление блоков с тишиной в начале и конце : Нет
При вычислениях CRC использовались нулевые сэмплы : Да
Интерфейс : Встроенный Win32-интерфейс для Win NT/2000

Выходной формат : Внутренние WAV-операции
Формат сэмплов : 44.100 Гц; 16 бит; стерео

TOC извлечённого CD

Трек | Старт | Длительность | Начальный сектор | Конечный сектор
––––––––––––––––––––––––––––––––––-
1 | 0:00.00 | 5:50.22 | 0 | 26271
2 | 5:50.22 | 7:40.40 | 26272 | 60811
3 | 13:30.62 | 6:37.25 | 60812 | 90611
4 | 20:08.12 | 5:51.55 | 90612 | 116991
5 | 25:59.67 | 4:22.28 | 116992 | 136669
6 | 30:22.20 | 11:24.10 | 136670 | 187979
7 | 41:46.30 | 9:40.42 | 187980 | 231521
8 | 51:26.72 | 7:04.18 | 231522 | 263339
9 | 58:31.15 | 8:48.00 | 263340 | 302939

Характеристики диапазона извлечения и сообщения об ошибках

Выбранный диапазон

Имя файла E:CD TorrentSt.Elmo’s FireSplitting Ions in the Ether 1998St. Elmo’s Fire – Splitting Ions in the Ether.wav

Пиковый уровень 99.9 %
Качество диапазона 99.9 %
CRC копии 01149A05
Копирование… OK

Ошибок не произошло

AccurateRip: сводка

Трек 1 нет в базе данных
Трек 2 нет в базе данных
Трек 3 нет в базе данных
Трек 4 нет в базе данных
Трек 5 нет в базе данных
Трек 6 нет в базе данных
Трек 7 нет в базе данных
Трек 8 нет в базе данных
Трек 9 нет в базе данных

Ни одного трека нет в базе AccurateRip

Конец отчёта

CUETools log
[CUETools log; Date: 22.12.2016 6:27:21; Version: 2.1.4]
[CTDB TOCID: 6oZBvQeascPb0qyy1C.iO98RjRQ-] found.
Track | CTDB Status
1 | (3/3) Accurately ripped
2 | (3/3) Accurately ripped
3 | (3/3) Accurately ripped
4 | (3/3) Accurately ripped
5 | (3/3) Accurately ripped
6 | (3/3) Accurately ripped
7 | (3/3) Accurately ripped
8 | (3/3) Accurately ripped
9 | (3/3) Accurately ripped
[AccurateRip ID: 00159fb4-00a148b1-650fc709] found.
Track [ CRC | V2 ] Status
01 [f46bdfde|c7c33a48] (0+0/0) No match
02 [1e7a2625|7cd12382] (0+0/0) No match
03 [47e05456|a902c418] (0+0/0) No match
04 [82733392|b5723396] (1+0/1) Accurately ripped
05 [9d158da0|ec196fec] (0+0/0) No match
06 [1030dea1|bfac51cb] (0+0/0) No match
07 [2824b035|488a9d3f] (0+0/0) No match
08 [9e14122d|a1ea09dd] (0+0/0) No match
09 [42e3ff29|9a6dd4df] (0+0/0) No match

Track Peak [ CRC32 ] [W/O NULL] [ LOG ]
– 99,9 [01149A05] [E6D707DB] CRC32
01 99,8 [30C6BC89] [2B1FB62C]
02 99,8 [3FF7CCEE] [7B48FB73]
03 93,4 [74FD223B] [9F51C46B]
04 70,7 [004C893C] [37BA5722]
05 99,9 [048C7C13] [70D88945]
06 99,8 [04691BAD] [F16140FB]
07 78,5 [5DD6C66F] [FC783620]
08 99,9 [28F35683] [E5ACA4FD]
09 99,9 [D178C37C] [1E8A7871]

St. Elmo's Fire - 2 Albums (1998-2001)

St. Elmo’s Fire – Artifacts Of Passion (2001)
EAC Rip | FLAC (image+.cue+log) – 421 MB | MP3 CBR 320 kbps (LAME 3.93) – 159 MB | Covers (10 MB) included
Genre: Progressive Rock | RAR 3% Rec. | Label: Sprawling Productions (SPL-5545)

Tracklist:
01. The Dead Sea Scrolls
02. North-West Territory
03. Contortions Of The Balrog
04. Esmerelda
05. The Nemo Syndrome
06. Erin & The Green Man
07. The Abduction Of The Adolescents
08. Lake Effect
09. Dog-Eared Page

Total time: 01:03:24

EAC log
Exact Audio Copy V0.99 prebeta 5 from 4. May 2009

Отчёт EAC об извлечении, выполненном 3. ноября 2010, 14:14

St. Elmo’s Fire / Artifacts Of Passion

Дисковод: TSSTcorpCD/DVDW SH-S182M Adapter: 0 ID: 1

Режим чтения : Достоверность
Использование точного потока : Да
Отключение кэша аудио : Да
Использование указателей C2 : Нет

Коррекция смещения при чтении : 6
Способность читать области Lead-in и Lead-out : Нет
Заполнение пропущенных сэмплов тишиной : Да
Удаление блоков с тишиной в начале и конце : Нет
При вычислениях CRC использовались нулевые сэмплы : Да
Интерфейс : Встроенный Win32-интерфейс для Win NT/2000

Выходной формат : Внутренние WAV-операции
Формат сэмплов : 44.100 Гц; 16 бит; стерео

TOC извлечённого CD

Трек | Старт | Длительность | Начальный сектор | Конечный сектор
––––––––––––––––––––––––––––––––––-
1 | 0:00.00 | 6:40.02 | 0 | 30001
2 | 6:40.02 | 5:12.05 | 30002 | 53406
3 | 11:52.07 | 7:24.58 | 53407 | 86764
4 | 19:16.65 | 6:23.67 | 86765 | 115556
5 | 25:40.57 | 8:59.25 | 115557 | 156006
6 | 34:40.07 | 5:12.10 | 156007 | 179416
7 | 39:52.17 | 10:26.08 | 179417 | 226374
8 | 50:18.25 | 13:05.45 | 226375 | 285294
9 | 56:32.72 | 6:50.73 | 254472 | 285294

Характеристики диапазона извлечения и сообщения об ошибках

Выбранный диапазон

Имя файла E:CD TorrentSt.Elmo’s FireArtifacts of Passion 2001St. Elmo’s Fire – Artifacts Of Passion.wav

Пиковый уровень 100.0 %
Качество диапазона 100.0 %
CRC копии 2E8397A2
Копирование… OK

Ошибок не произошло

AccurateRip: сводка

Трек 1 точное извлечение (доверие 1) [0E900184]
Трек 2 точное извлечение (доверие 1) [DDB956E5]
Трек 3 точное извлечение (доверие 1) [3E16D4EF]
Трек 4 точное извлечение (доверие 1) [20E98C54]
Трек 5 точное извлечение (доверие 1) [C3A66E4D]
Трек 6 точное извлечение (доверие 1) [B66957AD]
Трек 7 точное извлечение (доверие 1) [8BDC69F1]
Трек 8 точное извлечение (доверие 1) [BF389C1A]
Трек 9 точное извлечение (доверие 1) [55ED5105]

Все треки извлечены точно

Конец отчёта

CUETools log
[CUETools log; Date: 22.12.2016 6:26:13; Version: 2.1.4]
[CTDB TOCID: f4EBoQmDqpv19DybX85blboE0aM-] disk not present in database.
[AccurateRip ID: 00152b21-009d081e-650edb09] found.
Track [ CRC | V2 ] Status
01 [0e900184|656b6ef6] (2+0/2) Accurately ripped
02 [ddb956e5|01838494] (1+0/1) Accurately ripped
03 [3e16d4ef|6f3ffb5d] (1+0/1) Accurately ripped
04 [20e98c54|9c57d4a3] (1+0/1) Accurately ripped
05 [c3a66e4d|e3f194d0] (1+0/1) Accurately ripped
06 [b66957ad|3c6f24aa] (1+0/1) Accurately ripped
07 [8bdc69f1|135c85eb] (1+0/1) Accurately ripped
08 [bf389c1a|4c903a54] (1+0/1) Accurately ripped
09 [55ed5105|75825afc] (1+0/1) Accurately ripped

Track Peak [ CRC32 ] [W/O NULL] [ LOG ]
– 100,0 [2E8397A2] [0B41096D] CRC32
01 100,0 [B5945DD6] [841914EC]
02 100,0 [BE755783] [087636A8]
03 100,0 [4B079F17] [957C2C5F]
04 79,2 [4A284D8D] [D7ED157F]
05 100,0 [E33AE9E2] [0AADF3D8]
06 99,9 [17566495] [81F0367D]
07 100,0 [3C797702] [1F5C2989]
08 99,8 [39B94894] [49F7747A]
09 94,1 [CEEA838D] [0DCF1DBC]

Thanks to Комаров Сергей

Welcome to My Blog!

St. Elmo's Fire – 2 Albums (1998-2001) Download, Warez, DDL, Free, Full Album, Torrent, Legal.

Download


  • Recent Posts

  • Recent Tags