Spock's Beard – Live At The Whisky And Nearfest (1999)

Download
Spock's Beard - Live At The Whisky And Nearfest (1999)

Spock’s Beard – Live At The Whisky And Nearfest (1999)
EAC | Flac(Image) + Cue + Log & MP3 CBR 320Kbps
2CD | Radiant Records, RA-006 | ~ 709 or 237 Mb | Scans(jpg) -> 7 Mb
Progressive Rock

Ladies & gentlemen put your hands together for SPOCK’S BEARD. Yes it is a 2 CD live album covering many of the BEARDS greatest tunes of all time. The songs are slightly varied and offer some real live energy. This album covers the musical highlights from 2 seperate concerts but actually runs like one fluid show and without any overdubs or unnecessary after mix touchups. Highlight for me is "The Doorway" which dips and dives into many new regions and even stars a percussion solo from Nick. Another big surprise is a very nifty version of GENESIS’ "Squonk" which was played at Nearfest ’99. Overall this is a superb collection and the only bummer is the lack of liner notes and photos…

by loserboy, progarchives

Spock’s Beard – Live At The Whisky And Nearfest (1999):

Spock's Beard - Live At The Whisky And Nearfest (1999)

Tracklist CD1:

1. Introduction (1:01)
2. Mouth of Madness (5:00)
3. Gibberish (4:40)
4. Skin (4:14)
5. Go The Way You Go (13:27)
6. The Distance To The Sun (5:19)
7. Crack The Big Sky [9:50]

EAC Log
Exact Audio Copy V1.0 beta 3 from 29. August 2011

Отчёт EAC об извлечении, выполненном 10. октября 2013, 14:46

Spock’s Beard / Live At The Whisky And Nearfest

Дисковод: ASUS BW-12D1S-U Adapter: 1 ID: 1

Режим чтения : Достоверность
Использование точного потока : Да
Отключение кэша аудио : Да
Использование указателей C2 : Нет

Коррекция смещения при чтении : 667
Способность читать области Lead-in и Lead-out : Нет
Заполнение пропущенных сэмплов тишиной : Да
Удаление блоков с тишиной в начале и конце : Нет
При вычислениях CRC использовались нулевые сэмплы : Да
Интерфейс : Встроенный Win32-интерфейс для Win NT/2000

Выходной формат : Пользовательский кодировщик
Выбранный битрейт : 1024 kBit/s
Качество : Высокий
Добавление ID3-тега : Нет
Утилита сжатия : C:Program Files (x86)Exact Audio CopyFlacflac.exe
Дополнительные параметры : -V -8 -T "Date=%year%" -T "Genre=%genre%" %source%

TOC извлечённого CD

Трек | Старт | Длительность | Начальный сектор | Конечный сектор
––––––––––––––––––––––––––––––––––-
1 | 0:00.00 | 1:02.12 | 0 | 4661
2 | 1:02.12 | 5:00.28 | 4662 | 27189
3 | 6:02.40 | 4:41.10 | 27190 | 48274
4 | 10:43.50 | 4:13.57 | 48275 | 67306
5 | 14:57.32 | 13:29.50 | 67307 | 128031
6 | 28:27.07 | 5:19.73 | 128032 | 152029
7 | 33:47.05 | 9:50.47 | 152030 | 196326

Характеристики диапазона извлечения и сообщения об ошибках

Выбранный диапазон

Имя файла E:Spock’s Beard (Live & Singles)Spock’s Beard (1999) – Live at The Whisky and Nearfes 2CDCD-1Spock’s Beard – Live At The Whisky And Nearfest.wav

Пиковый уровень 100.0 %
Скорость извлечения 7.5 X
Качество диапазона 100.0 %
CRC теста 577B1EDE
CRC копии 577B1EDE
Копирование… OK

Ошибок не произошло

AccurateRip: сводка

Трек 1 : извлечено точно (доверие 5) [0869FD1B] (AR v2)
Трек 2 : извлечено точно (доверие 5) [74F31B0E] (AR v2)
Трек 3 : извлечено точно (доверие 5) [52E063FC] (AR v2)
Трек 4 : извлечено точно (доверие 5) [FE9A8B29] (AR v2)
Трек 5 : извлечено точно (доверие 5) [0BB45ECE] (AR v2)
Трек 6 : извлечено точно (доверие 4) [67566325] (AR v2)
Трек 7 : извлечено точно (доверие 4) [21E0D676] (AR v2)

Все треки извлечены точно

Конец отчёта

DR Log
foobar2000 1.2.9 / Dynamic Range Meter 1.1.1
log date: 2017-07-12 20:43:29

––––––––––––––––––––––––––––––––––––––––
Analyzed: Spock’s Beard / Live At The Whisky And Nearfest
––––––––––––––––––––––––––––––––––––––––

DR Peak RMS Duration Track
––––––––––––––––––––––––––––––––––––––––
DR12 -0.01 dB -15.36 dB 1:02 01-Introduction
DR8 -0.01 dB -9.85 dB 5:00 02-Mouth Of Madness
DR8 -0.01 dB -11.30 dB 4:41 03-Gibberish
DR8 -0.01 dB -10.19 dB 4:14 04-Skin
DR8 0.00 dB -10.36 dB 13:30 05-Go The Way You Go
DR9 0.00 dB -13.99 dB 5:20 06-The Distance To The Sun
DR7 -0.01 dB -9.81 dB 9:51 07-Crack The Big Sky
––––––––––––––––––––––––––––––––––––––––

Number of tracks: 7
Official DR value: DR8

Samplerate: 44100 Hz
Channels: 2
Bits per sample: 16
Bitrate: 945 kbps
Codec: FLAC

CUETools Log
[CUETools log; Date: 12.07.2017 20:31:41; Version: 2.1.4]
[CTDB TOCID: htAQnTN5rvshn6DtyfznXbUamQU-] found.
Track | CTDB Status
1 | (19/19) Accurately ripped
2 | (19/19) Accurately ripped
3 | (19/19) Accurately ripped
4 | (19/19) Accurately ripped
5 | (19/19) Accurately ripped
6 | (19/19) Accurately ripped
7 | (19/19) Accurately ripped
[AccurateRip ID: 000984cf-003d64fc-600a3907] found.
Track [ CRC | V2 ] Status
01 [d38a4002|0869fd1b] (05+09/23) Accurately ripped
02 [5e7fd685|74f31b0e] (05+09/23) Accurately ripped
03 [a84b3f00|52e063fc] (05+09/23) Accurately ripped
04 [e6207fdb|fe9a8b29] (05+09/23) Accurately ripped
05 [56d2d620|0bb45ece] (05+09/23) Accurately ripped
06 [260377b7|67566325] (04+08/21) Accurately ripped
07 [1b09aef4|21e0d676] (05+08/22) Accurately ripped
Offsetted by -588:
01 [5a5ba056] (04/23) Accurately ripped
02 [7d663f23] (04/23) Accurately ripped
03 [9e6f7f14] (04/23) Accurately ripped
04 [29ff77a0] (04/23) Accurately ripped
05 [e2940f25] (04/23) Accurately ripped
06 [5a71f3d9] (04/21) Accurately ripped
07 [1e416182] (04/22) Accurately ripped

Track Peak [ CRC32 ] [W/O NULL] [ LOG ]
– 100,0 [577B1EDE] [E24ADEF5] CRC32
01 99,8 [B473D306] [C8B6ABA9]
02 99,9 [DFE44D3E] [20622B8A]
03 99,9 [FE668EAC] [9B82E65A]
04 99,9 [883BE3A6] [AE89D79E]
05 100,0 [255BDDA6] [7FAB2742]
06 100,0 [3CA14AFB] [36B3B233]
07 99,9 [BE7CB6DE] [49231FEB]

Spock's Beard - Live At The Whisky And Nearfest (1999)

Tracklist CD2:

1. The Doorway (14:04)
2. The Light (20:13)
3. June (3:48)
4. Waste Away (5:04)
5. Squonk (3:33)
6. Walking On The Wind (10:01)
Total Time: 01:38:54

EAC Log
Exact Audio Copy V1.0 beta 3 from 29. August 2011

Отчёт EAC об извлечении, выполненном 10. октября 2013, 15:30

Spock’s Beard / Live At The Whisky And Nearfest

Дисковод: ASUS BW-12D1S-U Adapter: 1 ID: 1

Режим чтения : Достоверность
Использование точного потока : Да
Отключение кэша аудио : Да
Использование указателей C2 : Нет

Коррекция смещения при чтении : 667
Способность читать области Lead-in и Lead-out : Нет
Заполнение пропущенных сэмплов тишиной : Да
Удаление блоков с тишиной в начале и конце : Нет
При вычислениях CRC использовались нулевые сэмплы : Да
Интерфейс : Встроенный Win32-интерфейс для Win NT/2000

Выходной формат : Пользовательский кодировщик
Выбранный битрейт : 1024 kBit/s
Качество : Высокий
Добавление ID3-тега : Нет
Утилита сжатия : C:Program Files (x86)Exact Audio CopyFlacflac.exe
Дополнительные параметры : -V -8 -T "Date=%year%" -T "Genre=%genre%" %source%

TOC извлечённого CD

Трек | Старт | Длительность | Начальный сектор | Конечный сектор
––––––––––––––––––––––––––––––––––-
1 | 0:00.00 | 14:05.05 | 0 | 63379
2 | 14:05.05 | 20:13.42 | 63380 | 154396
3 | 34:18.47 | 3:48.08 | 154397 | 171504
4 | 38:06.55 | 5:04.50 | 171505 | 194354
5 | 43:11.30 | 3:33.42 | 194355 | 210371
6 | 46:44.72 | 9:59.35 | 210372 | 255331

Характеристики диапазона извлечения и сообщения об ошибках

Выбранный диапазон

Имя файла E:Spock’s Beard (Live & Singles)Spock’s Beard (1999) – Live at The Whisky and Nearfes 2CDCD-2Spock’s Beard – Live At The Whisky And Nearfest.wav

Пиковый уровень 99.9 %
Скорость извлечения 8.0 X
Качество диапазона 100.0 %
CRC теста A6F28D70
CRC копии A6F28D70
Копирование… OK

Ошибок не произошло

AccurateRip: сводка

Трек 1 : извлечено точно (доверие 6) [F9F4902C] (AR v2)
Трек 2 : извлечено точно (доверие 6) [235EE63D] (AR v2)
Трек 3 : извлечено точно (доверие 6) [B5AF2816] (AR v2)
Трек 4 : извлечено точно (доверие 6) [4027B89D] (AR v2)
Трек 5 : извлечено точно (доверие 6) [7BFA9C47] (AR v2)
Трек 6 : извлечено точно (доверие 6) [6C007765] (AR v2)

Все треки извлечены точно

Конец отчёта

DR Log
foobar2000 1.2.9 / Dynamic Range Meter 1.1.1
log date: 2017-07-12 20:43:12

––––––––––––––––––––––––––––––––––––––––
Analyzed: Spock’s Beard / Live At The Whisky And Nearfest
––––––––––––––––––––––––––––––––––––––––

DR Peak RMS Duration Track
––––––––––––––––––––––––––––––––––––––––
DR7 -0.01 dB -10.57 dB 14:05 01-The Doorway
DR9 -0.01 dB -12.50 dB 20:14 02-The Light
DR13 -0.02 dB -17.63 dB 3:48 03-June/
DR9 -0.01 dB -11.67 dB 5:05 04-Waste Away
DR8 -0.01 dB -10.14 dB 3:34 05-Squonk
DR8 -0.01 dB -11.38 dB 9:59 06-Walking On The Wind
––––––––––––––––––––––––––––––––––––––––

Number of tracks: 6
Official DR value: DR9

Samplerate: 44100 Hz
Channels: 2
Bits per sample: 16
Bitrate: 970 kbps
Codec: FLAC

CUETools Log
[CUETools log; Date: 12.07.2017 20:34:32; Version: 2.1.4]
[CTDB TOCID: WfVCbeFrqEnRDw_rIo7KY3RustA-] found.
Track | CTDB Status
1 | (19/19) Accurately ripped
2 | (19/19) Accurately ripped
3 | (19/19) Accurately ripped
4 | (19/19) Accurately ripped
5 | (19/19) Accurately ripped
6 | (19/19) Accurately ripped
[AccurateRip ID: 001002fd-0050d497-540d4c06] found.
Track [ CRC | V2 ] Status
01 [317fd0f0|f9f4902c] (09+14/23) Accurately ripped
02 [d19b6707|235ee63d] (08+14/22) Accurately ripped
03 [4f196339|b5af2816] (09+14/23) Accurately ripped
04 [d2e7b130|4027b89d] (09+14/23) Accurately ripped
05 [c96d55fb|7bfa9c47] (09+14/23) Accurately ripped
06 [4f737ef7|6c007765] (09+14/23) Accurately ripped

Track Peak [ CRC32 ] [W/O NULL] [ LOG ]
– 99,9 [A6F28D70] [3F30B795] CRC32
01 99,9 [2F16B54C] [04FADB38]
02 99,9 [C29B3146] [DE56B55E]
03 99,8 [9CC4EC02] [0ADEB53E]
04 99,9 [8DD0482C] [11FA3EA1]
05 99,9 [55C2C11F] [EF00A1EA]
06 99,9 [D3CB2B33] [7CB75769]

Spock's Beard - Live At The Whisky And Nearfest (1999)

All thanks go to the original releaser

Spock’s Beard in my Blog

Download Spock’s Beard – Live At The Whisky And Nearfest (1999):

Spock's Beard – Live At The Whisky And Nearfest (1999) Download, Warez, DDL, Free, Full Album, Torrent, Legal.

Download