Spock's Beard – Live (2008)

Download
Spock's Beard - Live (2008)

Spock’s Beard – Live (2008)
EAC | Flac(Image) + Cue + Log & MP3 CBR 320Kbps
2CD | InsideOutMusic, SPV 79822 DCD | ~ 808 or 266 Mb | Scans(jpg) -> 40 Mb
Progressive Rock

Spock s Beard is regarded as one the greatest live bands in the Progressive Rock scene today. Any attendee of a Beard show would agree that they truly are Prog Rock masters. If you have yet to experience the magic that is a Spock s Beard concert, worry no more. Spock s Beard Live features a breathtaking live performance from Today s Prog Rock Kings…

~ amazon

Spock’s Beard – Live (2008):

Spock's Beard - Live (2008)

Tracklist CD1:

01. Intro (1:32)
02. On A Perfect Day (8:01)
03. In The Mouth Of Madness (4:59)
04. Crack The Big Sky (10:36)
05. The Slow Crash Landing Man (7:05)
06. Return To Whatever (6:37)
07. Surfing Down The Avalanche (4:26)
08. Thoughts – Part 2 (4:59)
09. Drum Duel (4:49)
10. Skeletons At The Feast (7:15)

EAC Log
Exact Audio Copy V1.0 beta 3 from 29. August 2011

Отчёт EAC об извлечении, выполненном 10. октября 2013, 20:13

Spock’s Beard / Live CD-1

Дисковод: ASUS BW-12D1S-U Adapter: 1 ID: 1

Режим чтения : Достоверность
Использование точного потока : Да
Отключение кэша аудио : Да
Использование указателей C2 : Нет

Коррекция смещения при чтении : 667
Способность читать области Lead-in и Lead-out : Нет
Заполнение пропущенных сэмплов тишиной : Да
Удаление блоков с тишиной в начале и конце : Нет
При вычислениях CRC использовались нулевые сэмплы : Да
Интерфейс : Встроенный Win32-интерфейс для Win NT/2000

Выходной формат : Пользовательский кодировщик
Выбранный битрейт : 1024 kBit/s
Качество : Высокий
Добавление ID3-тега : Нет
Утилита сжатия : C:Program Files (x86)Exact Audio CopyFlacflac.exe
Дополнительные параметры : -V -8 -T "Date=%year%" -T "Genre=%genre%" %source%

TOC извлечённого CD

Трек | Старт | Длительность | Начальный сектор | Конечный сектор
––––––––––––––––––––––––––––––––––-
1 | 0:00.33 | 1:32.13 | 33 | 6945
2 | 1:32.46 | 8:00.66 | 6946 | 43011
3 | 9:33.37 | 4:58.56 | 43012 | 65417
4 | 14:32.18 | 10:35.54 | 65418 | 113096
5 | 25:07.72 | 7:05.14 | 113097 | 144985
6 | 32:13.11 | 6:37.24 | 144986 | 174784
7 | 38:50.35 | 4:26.36 | 174785 | 194770
8 | 43:16.71 | 4:58.72 | 194771 | 217192
9 | 48:15.68 | 4:48.54 | 217193 | 238846
10 | 53:04.47 | 7:14.60 | 238847 | 271456

Характеристики диапазона извлечения и сообщения об ошибках

Выбранный диапазон

Имя файла E:Spock’s Beard (Live & Singles)Spock’s Beard (2008) – Live (2CD)CD-1Spock’s Beard – Live CD-1.wav

Пиковый уровень 100.0 %
Скорость извлечения 1.9 X
Качество диапазона 100.0 %
CRC теста E511CB2F
CRC копии E511CB2F
Копирование… OK

Ошибок не произошло

AccurateRip: сводка

Трек 1 : извлечено точно (доверие 6) [E8E16A74] (AR v2)
Трек 2 : извлечено точно (доверие 6) [8A3F5375] (AR v2)
Трек 3 : извлечено точно (доверие 6) [A5C874EF] (AR v2)
Трек 4 : извлечено точно (доверие 6) [B343FCB6] (AR v2)
Трек 5 : извлечено точно (доверие 6) [2BADD8F4] (AR v2)
Трек 6 : извлечено точно (доверие 6) [BC90D6C8] (AR v2)
Трек 7 : извлечено точно (доверие 6) [51A483F2] (AR v2)
Трек 8 : извлечено точно (доверие 6) [55DEFCBD] (AR v2)
Трек 9 : извлечено точно (доверие 6) [59F55281] (AR v2)
Трек 10 : извлечено точно (доверие 6) [D578C41A] (AR v2)

Все треки извлечены точно

Конец отчёта

DR Log
foobar2000 1.2.9 / Dynamic Range Meter 1.1.1
log date: 2017-07-29 22:16:39

––––––––––––––––––––––––––––––––––––––––
Analyzed: Spock’s Beard / Live CD-1
––––––––––––––––––––––––––––––––––––––––

DR Peak RMS Duration Track
––––––––––––––––––––––––––––––––––––––––
DR13 0.00 dB -15.58 dB 1:32 01-Intro
DR8 -0.01 dB -11.40 dB 8:01 02-On A Perfect Day
DR8 -0.01 dB -9.80 dB 4:59 03-In The Mouth Of Madness
DR8 -0.01 dB -10.13 dB 10:36 04-Crack The Big Sky
DR6 -0.41 dB -8.28 dB 7:05 05-The Slow Crash Landing Man
DR8 0.00 dB -9.62 dB 6:37 06-Return To Whatever
DR7 0.00 dB -8.99 dB 4:26 07-Surfing Down The Avalanche
DR8 -0.01 dB -11.33 dB 4:59 08-Thoughts (Part 2)
DR9 -0.01 dB -11.10 dB 4:49 09-Drum Duel
DR8 -0.01 dB -9.46 dB 7:15 10-Skeletons At The Feast
––––––––––––––––––––––––––––––––––––––––

Number of tracks: 10
Official DR value: DR8

Samplerate: 44100 Hz
Channels: 2
Bits per sample: 16
Bitrate: 979 kbps
Codec: FLAC

CUETools Log
[CUETools log; Date: 29.07.2017 22:07:53; Version: 2.1.4]
Pregap length 00:00:33.
[CTDB TOCID: ewUfSI_aj_pg2_0InnoFQlSKuc8-] found.
Track | CTDB Status
1 | (8/8) Accurately ripped
2 | (8/8) Accurately ripped
3 | (8/8) Accurately ripped
4 | (8/8) Accurately ripped
5 | (8/8) Accurately ripped
6 | (8/8) Accurately ripped
7 | (8/8) Accurately ripped
8 | (8/8) Accurately ripped
9 | (8/8) Accurately ripped
10 | (8/8) Accurately ripped
[AccurateRip ID: 00167051-00b65b53-a20e230a] found.
Track [ CRC | V2 ] Status
01 [cc72aca7|e8e16a74] (09+10/19) Accurately ripped
02 [a519ffc0|8a3f5375] (09+10/19) Accurately ripped
03 [adce496c|a5c874ef] (09+10/19) Accurately ripped
04 [ca62b16b|b343fcb6] (09+09/18) Accurately ripped
05 [20e66962|2badd8f4] (09+10/19) Accurately ripped
06 [9d759763|bc90d6c8] (09+10/19) Accurately ripped
07 [8d73fae3|51a483f2] (09+10/19) Accurately ripped
08 [e910a8ea|55defcbd] (09+10/19) Accurately ripped
09 [3988a8c3|59f55281] (09+10/19) Accurately ripped
10 [63155e9a|d578c41a] (09+10/19) Accurately ripped

Track Peak [ CRC32 ] [W/O NULL] [ LOG ]
– 100,0 [E511CB2F] [F3B44256] CRC32
01 100,0 [9B508CB9] [720E3FDC]
02 99,9 [66FA53A9] [9A84F4D5]
03 99,9 [93E02DB4] [F394D2AF]
04 99,9 [3C96EB61] [CC075528]
05 95,3 [67DA77C3] [67984A82]
06 100,0 [7F9E8465] [E40B9388]
07 99,9 [BEC8B1FA] [D208F24A]
08 99,9 [5B6AAF8F] [0B26E2D5]
09 99,9 [57386809] [738118CB]
10 99,9 [DD3181B0] [5FC70E55]

Spock's Beard - Live (2008)

Tracklist CD2:

01. Walking On The Wind (10:04)
02. Hereafter – Ryo Solo (3:36)
As Far As The Mind Can See:
03. Part One: Dreaming In The Age Of Answers (5:07)
04. Part Two: Here’s A Man (3:36)
05. Part Three: They Know We Know (3:15)
06. Part Four: Stream Of Unconsciousness (5:49)
07. Rearranged (6:57)
Medley:
08. The Water (6:13)
09. Go The Way You Go (7:49)

EAC Log
Exact Audio Copy V1.0 beta 3 from 29. August 2011

Отчёт EAC об извлечении, выполненном 11. октября 2013, 1:06

Spock’s Beard / Live

Дисковод: ASUS BW-12D1S-U Adapter: 1 ID: 1

Режим чтения : Достоверность
Использование точного потока : Да
Отключение кэша аудио : Да
Использование указателей C2 : Нет

Коррекция смещения при чтении : 667
Способность читать области Lead-in и Lead-out : Нет
Заполнение пропущенных сэмплов тишиной : Да
Удаление блоков с тишиной в начале и конце : Нет
При вычислениях CRC использовались нулевые сэмплы : Да
Интерфейс : Встроенный Win32-интерфейс для Win NT/2000

Выходной формат : Пользовательский кодировщик
Выбранный битрейт : 1024 kBit/s
Качество : Высокий
Добавление ID3-тега : Нет
Утилита сжатия : C:Program Files (x86)Exact Audio CopyFlacflac.exe
Дополнительные параметры : -V -8 -T "Date=%year%" -T "Genre=%genre%" %source%

TOC извлечённого CD

Трек | Старт | Длительность | Начальный сектор | Конечный сектор
––––––––––––––––––––––––––––––––––-
1 | 0:00.02 | 10:04.04 | 2 | 45305
2 | 10:04.06 | 3:36.00 | 45306 | 61505
3 | 13:40.06 | 5:06.51 | 61506 | 84506
4 | 18:46.57 | 3:35.50 | 84507 | 100681
5 | 22:22.32 | 3:15.27 | 100682 | 115333
6 | 25:37.59 | 5:49.17 | 115334 | 141525
7 | 31:27.01 | 6:56.68 | 141526 | 172793
8 | 38:23.69 | 6:12.74 | 172794 | 200767
9 | 44:36.68 | 7:49.23 | 200768 | 235965

Характеристики диапазона извлечения и сообщения об ошибках

Выбранный диапазон

Имя файла E:Spock’s Beard (Live & Singles)Spock’s Beard (2008) – Live (2CD)CD-2Spock’s Beard – Live.wav

Пиковый уровень 100.0 %
Скорость извлечения 1.8 X
Качество диапазона 100.0 %
CRC теста 6FDDCA7D
CRC копии 6FDDCA7D
Копирование… OK

Ошибок не произошло

AccurateRip: сводка

Трек 1 : извлечено точно (доверие 6) [302B4469] (AR v2)
Трек 2 : извлечено точно (доверие 6) [93020D61] (AR v2)
Трек 3 : извлечено точно (доверие 6) [996D3BEB] (AR v2)
Трек 4 : извлечено точно (доверие 6) [94E3D14D] (AR v2)
Трек 5 : извлечено точно (доверие 6) [4C52F63D] (AR v2)
Трек 6 : извлечено точно (доверие 6) [FF6A4977] (AR v2)
Трек 7 : извлечено точно (доверие 6) [3653A63F] (AR v2)
Трек 8 : извлечено точно (доверие 6) [BF3E977E] (AR v2)
Трек 9 : извлечено точно (доверие 6) [4E1366DE] (AR v2)

Все треки извлечены точно

Конец отчёта

DR Log
foobar2000 1.2.9 / Dynamic Range Meter 1.1.1
log date: 2017-07-29 22:16:19

––––––––––––––––––––––––––––––––––––––––
Analyzed: Spock’s Beard / Live
––––––––––––––––––––––––––––––––––––––––

DR Peak RMS Duration Track
––––––––––––––––––––––––––––––––––––––––
DR8 -0.01 dB -10.51 dB 10:04 01-Walking On The Wind
DR17 -2.88 dB -24.46 dB 3:36 02-Hereafter (Ryo Solo)
DR9 -0.01 dB -11.21 dB 5:07 03-Part One: Dreaming In The Age Of Answers
DR8 -0.01 dB -9.73 dB 3:36 04-Part Two: Here’s A Man
DR7 -0.01 dB -7.83 dB 3:15 05-Part Three: They Know We Know
DR7 -0.01 dB -8.48 dB 5:49 06-Part Four: Stream Of Unconsciousness
DR6 -0.01 dB -8.40 dB 6:57 07-Rearranged
DR8 0.00 dB -9.45 dB 6:13 08-The Water
DR7 0.00 dB -8.90 dB 7:49 09-Go The Way You Go
––––––––––––––––––––––––––––––––––––––––

Number of tracks: 9
Official DR value: DR8

Samplerate: 44100 Hz
Channels: 2
Bits per sample: 16
Bitrate: 966 kbps
Codec: FLAC

CUETools Log
[CUETools log; Date: 29.07.2017 22:10:53; Version: 2.1.4]
Pregap length 00:00:02.
[CTDB TOCID: TI4.FT30P7w2h9tvf0ZyQ3ALqvk-] found.
Track | CTDB Status
1 | (8/8) Accurately ripped
2 | (8/8) Accurately ripped
3 | (8/8) Accurately ripped
4 | (8/8) Accurately ripped
5 | (8/8) Accurately ripped
6 | (8/8) Accurately ripped
7 | (8/8) Accurately ripped
8 | (8/8) Accurately ripped
9 | (8/8) Accurately ripped
[AccurateRip ID: 0011acf7-007f6214-7f0c4a09] found.
Track [ CRC | V2 ] Status
01 [93b69208|302b4469] (09+10/19) Accurately ripped
02 [1bc4d285|93020d61] (09+10/19) Accurately ripped
03 [448dd30e|996d3beb] (09+10/19) Accurately ripped
04 [02c49db9|94e3d14d] (09+10/19) Accurately ripped
05 [b7ebde5c|4c52f63d] (09+10/19) Accurately ripped
06 [c5155dfb|ff6a4977] (09+10/19) Accurately ripped
07 [542e906c|3653a63f] (09+10/19) Accurately ripped
08 [fdadb3b8|bf3e977e] (09+10/19) Accurately ripped
09 [de227caf|4e1366de] (09+10/19) Accurately ripped

Track Peak [ CRC32 ] [W/O NULL] [ LOG ]
– 100,0 [6FDDCA7D] [8E066459] CRC32
01 99,9 [8928FA58] [9F4643F6]
02 71,7 [74074B58] [0707E851]
03 99,9 [76A90238] [1AB4301D]
04 99,9 [432374B8] [45FEEAAB]
05 99,9 [3C08C0C8] [A6A75EC7]
06 99,9 [BC5A1AC9] [AAFB5DEF]
07 99,9 [2F858EF1] [AA156BCD]
08 100,0 [034D9D25] [79578496]
09 100,0 [A31AC14D] [1FC8BD25]

Spock's Beard - Live (2008)

All thanks go to the original releaser

Spock’s Beard in my Blog

Download Spock’s Beard – Live (2008):

Spock's Beard – Live (2008) Download, Warez, DDL, Free, Full Album, Torrent, Legal.

Download