Spock's Beard – Gluttons For Punishment – Live In '05 (2005)

Download
Spock's Beard - Gluttons For Punishment - Live In '05 (2005)

Spock’s Beard – Gluttons For Punishment – Live In ’05 (2005)
EAC | Flac(Image) + Cue + Log & MP3 CBR 320Kbps
2CD | InsideOutMusic, SPV 48452 CD | ~ 781 or 280 Mb | Scans(jpg) -> 27 Mb
Progressive Rock

The musicians need no presentations and their play is as tight and inspired as usual. The quality is certainly as good as studio versions and in some cases higher. Take "The Bottom Line" for example. Considering the complexity of some songs, I’m always amazed to see that they can perform them live with such self-assurance. A mention needs to be made for Alan Morse, he really shines. No wonder why he’s my favorite guitarist.

The style varies throughout the double album and comes even close to? Gun’s and Roses at times. The parallel is especially true for Nick D’Virgilio’s voice (in "Climbing up that Hill" or "As Long As We Ride" for instance). But NDV shows us that he can play with his voice and can vary his singing depending on the needs. Listen to his interpretation of "At The End Of the Day", brilliant! More on the vocal aspect, Spock’s Beard are renowned for their vocal harmonies and they prove it here.

To sum up, you can’t go wrong with that one if you appreciate good shows with lots of energy and passion. Okay, sometimes it rocks harder than it "progs" but to me it’s not an issue at all. See it as a full plate of prog rock seasoned with a dash of hard rock. This is a perfect blend! 4,5 stars.

by phillihp, progarchives

Spock's Beard - Gluttons For Punishment - Live In '05 (2005)

Spock’s Beard – Gluttons For Punishment – Live In ’05 (2005):

Spock's Beard - Gluttons For Punishment - Live In '05 (2005)

Tracklist CD1:

01. Intro (1:20)
02. The Ballet of the Impact (5:50)
03. I Wouldn’t Let It Go (4:47)
04. Surfing Down the Avalanche (3:53)
05. She is Everything (7:06)
06. Climbing Up That Hill (3:34)
07. Letting Go (1:20)
08. Of the Beauty of It All (4:56)
09. Harm’s Way (11:17)
10. NWC (9:58)

EAC Log
Exact Audio Copy V1.0 beta 3 from 29. August 2011

Отчёт EAC об извлечении, выполненном 10. октября 2013, 16:26

Spock’s Beard / Gluttons For Punishment – Live In ’05

Дисковод: ASUS BW-12D1S-U Adapter: 1 ID: 1

Режим чтения : Достоверность
Использование точного потока : Да
Отключение кэша аудио : Да
Использование указателей C2 : Нет

Коррекция смещения при чтении : 667
Способность читать области Lead-in и Lead-out : Нет
Заполнение пропущенных сэмплов тишиной : Да
Удаление блоков с тишиной в начале и конце : Нет
При вычислениях CRC использовались нулевые сэмплы : Да
Интерфейс : Встроенный Win32-интерфейс для Win NT/2000

Выходной формат : Пользовательский кодировщик
Выбранный битрейт : 1024 kBit/s
Качество : Высокий
Добавление ID3-тега : Нет
Утилита сжатия : C:Program Files (x86)Exact Audio CopyFlacflac.exe
Дополнительные параметры : -V -8 -T "Date=%year%" -T "Genre=%genre%" %source%

TOC извлечённого CD

Трек | Старт | Длительность | Начальный сектор | Конечный сектор
––––––––––––––––––––––––––––––––––-
1 | 0:00.00 | 1:20.55 | 0 | 6054
2 | 1:20.55 | 5:50.26 | 6055 | 32330
3 | 7:11.06 | 4:47.24 | 32331 | 53879
4 | 11:58.30 | 3:53.41 | 53880 | 71395
5 | 15:51.71 | 7:06.54 | 71396 | 103399
6 | 22:58.50 | 3:34.21 | 103400 | 119470
7 | 26:32.71 | 1:20.61 | 119471 | 125531
8 | 27:53.57 | 4:56.41 | 125532 | 147772
9 | 32:50.23 | 11:17.34 | 147773 | 198581
10 | 44:07.57 | 9:58.53 | 198582 | 243484

Характеристики диапазона извлечения и сообщения об ошибках

Выбранный диапазон

Имя файла E:Spock’s Beard (Live & Singles)Spock’s Beard (2005) – Gluttons For Punishment – Live 05 (2CD)CD-1Spock’s Beard – Gluttons For Punishment – Live In ’05.wav

Пиковый уровень 99.8 %
Скорость извлечения 7.4 X
Качество диапазона 100.0 %
CRC теста FBE31972
CRC копии FBE31972
Копирование… OK

Ошибок не произошло

AccurateRip: сводка

Трек 1 : извлечено точно (доверие 6) [ACD95329] (AR v2)
Трек 2 : извлечено точно (доверие 6) [55A65887] (AR v2)
Трек 3 : извлечено точно (доверие 6) [10636865] (AR v2)
Трек 4 : извлечено точно (доверие 6) [37C640DB] (AR v2)
Трек 5 : извлечено точно (доверие 6) [71F1E30C] (AR v2)
Трек 6 : извлечено точно (доверие 6) [246C90C9] (AR v2)
Трек 7 : извлечено точно (доверие 6) [F751372A] (AR v2)
Трек 8 : извлечено точно (доверие 6) [110D38A6] (AR v2)
Трек 9 : извлечено точно (доверие 6) [5002FCEA] (AR v2)
Трек 10 : извлечено точно (доверие 6) [74D50C2B] (AR v2)

Все треки извлечены точно

Конец отчёта

DR Log
foobar2000 1.2.9 / Dynamic Range Meter 1.1.1
log date: 2017-07-24 21:35:31

––––––––––––––––––––––––––––––––––––––––
Analyzed: Spock’s Beard / Gluttons For Punishment – Live In ’05
––––––––––––––––––––––––––––––––––––––––

DR Peak RMS Duration Track
––––––––––––––––––––––––––––––––––––––––
DR11 -9.41 dB -23.70 dB 1:21 01-Intro
DR9 -0.01 dB -13.47 dB 5:50 02-The Ballet Of The Impact
DR10 -0.19 dB -13.86 dB 4:47 03-I Wouldn’t Let It Go
DR8 -0.01 dB -9.75 dB 3:54 04-Surfing Down The Avalanche
DR9 -0.11 dB -12.12 dB 7:07 05-She Is Everything
DR9 -0.15 dB -9.86 dB 3:34 06-Climbing Up That Hill
DR10 -2.93 dB -18.50 dB 1:21 07-Letting Go
DR9 -0.01 dB -11.51 dB 4:57 08-Of The Beauty Of It All
DR8 -0.01 dB -10.78 dB 11:17 09-Harm’s Way
DR9 -0.01 dB -12.03 dB 9:59 10-NWC
––––––––––––––––––––––––––––––––––––––––

Number of tracks: 10
Official DR value: DR9

Samplerate: 44100 Hz
Channels: 2
Bits per sample: 16
Bitrate: 893 kbps
Codec: FLAC

CUETools Log
[CUETools log; Date: 24.07.2017 21:21:40; Version: 2.1.4]
[CTDB TOCID: xQzWnZ3MFAWNryTDQvx6078_Etk-] found.
Track | CTDB Status
1 | (37/37) Accurately ripped
2 | (37/37) Accurately ripped
3 | (37/37) Accurately ripped
4 | (37/37) Accurately ripped
5 | (37/37) Accurately ripped
6 | (37/37) Accurately ripped
7 | (37/37) Accurately ripped
8 | (37/37) Accurately ripped
9 | (36/37) Accurately ripped
10 | (37/37) Accurately ripped
[AccurateRip ID: 0010d051-008b6a1d-8a0cae0a] found.
Track [ CRC | V2 ] Status
01 [a0c97942|acd95329] (21+22/43) Accurately ripped
02 [1b0bc204|55a65887] (21+22/43) Accurately ripped
03 [b0883a99|10636865] (21+22/43) Accurately ripped
04 [294b0607|37c640db] (20+22/42) Accurately ripped
05 [d72bfe0d|71f1e30c] (21+22/43) Accurately ripped
06 [9dd6c796|246c90c9] (21+22/43) Accurately ripped
07 [bd9192d8|f751372a] (21+22/43) Accurately ripped
08 [47ffe3bf|110d38a6] (21+22/43) Accurately ripped
09 [82288bde|5002fcea] (21+22/43) Accurately ripped
10 [9146b6db|74d50c2b] (22+22/44) Accurately ripped
Offsetted by -664:
01 [17b604c3] (00/43) No match (V2 was not tested)
02 [f892e95f] (00/43) No match (V2 was not tested)
03 [a8181be0] (00/43) No match (V2 was not tested)
04 [9370566c] (00/42) No match (V2 was not tested)
05 [1cf0d7d5] (00/43) No match (V2 was not tested)
06 [e3a50b15] (00/43) No match (V2 was not tested)
07 [265d7fa9] (00/43) No match (V2 was not tested)
08 [1cb2c352] (00/43) No match (V2 was not tested)
09 [fee20c17] (00/43) No match (V2 was not tested)
10 [a9aea46f] (00/44) No match (V2 was not tested)

Track Peak [ CRC32 ] [W/O NULL] [ LOG ]
– 99,8 [FBE31972] [FD032241] CRC32
01 33,8 [C68B4F7F] [FA63E762]
02 99,8 [E21CB2AC] [A9AB399C]
03 97,8 [CE5DFB02] [CAC07A00]
04 99,8 [1D137B26] [F53172A1]
05 98,7 [4D5CA2AB] [5AF445A6]
06 98,2 [FAF86CE4] [98F1CEA1]
07 71,3 [741F64D5] [3C81F687]
08 99,8 [FFE7C03B] [BD9CA533]
09 99,8 [BDAC42C6] [16FD2891]
10 99,8 [25BD5528] [D8CCE085]

Spock's Beard - Gluttons For Punishment - Live In '05 (2005)

Tracklist CD2:

1. At the End of the Day (16:33)
2. The Bottom Line (7:40)
3. Ryo’s Solo (5:57)
4. As Long as We Ride (8:26)
5. The Light (19:07)

EAC Log
Exact Audio Copy V1.0 beta 3 from 29. August 2011

Отчёт EAC об извлечении, выполненном 10. октября 2013, 17:07

Spock’s Beard / Gluttons For Punishment – Live In ’05

Дисковод: ASUS BW-12D1S-U Adapter: 1 ID: 1

Режим чтения : Достоверность
Использование точного потока : Да
Отключение кэша аудио : Да
Использование указателей C2 : Нет

Коррекция смещения при чтении : 667
Способность читать области Lead-in и Lead-out : Нет
Заполнение пропущенных сэмплов тишиной : Да
Удаление блоков с тишиной в начале и конце : Нет
При вычислениях CRC использовались нулевые сэмплы : Да
Интерфейс : Встроенный Win32-интерфейс для Win NT/2000

Выходной формат : Пользовательский кодировщик
Выбранный битрейт : 1024 kBit/s
Качество : Высокий
Добавление ID3-тега : Нет
Утилита сжатия : C:Program Files (x86)Exact Audio CopyFlacflac.exe
Дополнительные параметры : -V -8 -T "Date=%year%" -T "Genre=%genre%" %source%

TOC извлечённого CD

Трек | Старт | Длительность | Начальный сектор | Конечный сектор
––––––––––––––––––––––––––––––––––-
1 | 0:00.00 | 16:33.47 | 0 | 74521
2 | 16:33.47 | 7:40.29 | 74522 | 109050
3 | 24:14.01 | 5:57.29 | 109051 | 135854
4 | 30:11.30 | 6:49.01 | 135855 | 166530
5 | 37:00.31 | 8:26.03 | 166531 | 204483
6 | 45:26.34 | 19:07.01 | 204484 | 290509

Характеристики диапазона извлечения и сообщения об ошибках

Выбранный диапазон

Имя файла E:Spock’s Beard (Live & Singles)Spock’s Beard (2005) – Gluttons For Punishment – Live 05 (2CD)CD-2Spock’s Beard – Gluttons For Punishment – Live In ’05.wav

Пиковый уровень 99.8 %
Скорость извлечения 8.0 X
Качество диапазона 99.9 %
CRC теста D15EE150
CRC копии D15EE150
Копирование… OK

Ошибок не произошло

AccurateRip: сводка

Трек 1 : извлечено точно (доверие 6) [82223591] (AR v2)
Трек 2 : извлечено точно (доверие 6) [3FD655D5] (AR v2)
Трек 3 : извлечено точно (доверие 6) [5ED22FB8] (AR v2)
Трек 4 : извлечено точно (доверие 6) [0830F1C3] (AR v2)
Трек 5 : извлечено точно (доверие 6) [93C593DD] (AR v2)
Трек 6 : извлечено точно (доверие 6) [4FF7F12A] (AR v2)

Все треки извлечены точно

Конец отчёта

DR Log
foobar2000 1.2.9 / Dynamic Range Meter 1.1.1
log date: 2017-07-24 21:35:14

––––––––––––––––––––––––––––––––––––––––
Analyzed: Spock’s Beard / Gluttons For Punishment – Live In ’05
––––––––––––––––––––––––––––––––––––––––

DR Peak RMS Duration Track
––––––––––––––––––––––––––––––––––––––––
DR9 -0.01 dB -10.88 dB 16:34 01-At The End Of The Day
DR9 -0.13 dB -12.59 dB 7:40 02-The Bottom Line
DR13 -1.40 dB -20.19 dB 5:57 03-Ryo’s Solo
DR10 -0.13 dB -13.07 dB 6:49 04-Ghosts Of Autumn
DR8 -0.06 dB -10.70 dB 8:26 05-As Long As We Ride
DR7 -0.01 dB -10.67 dB 19:07 06-The Light
––––––––––––––––––––––––––––––––––––––––

Number of tracks: 6
Official DR value: DR9

Samplerate: 44100 Hz
Channels: 2
Bits per sample: 16
Bitrate: 893 kbps
Codec: FLAC

CUETools Log
[CUETools log; Date: 24.07.2017 21:24:43; Version: 2.1.4]
[CTDB TOCID: V84I4Ulz6oKlFs.Y.NcInaWEMOo-] found.
Track | CTDB Status
1 | (38/38) Accurately ripped
2 | (38/38) Accurately ripped
3 | (38/38) Accurately ripped
4 | (38/38) Accurately ripped
5 | (38/38) Accurately ripped
6 | (37/38) Accurately ripped
[AccurateRip ID: 000ef7d9-004e03ab-510f2106] found.
Track [ CRC | V2 ] Status
01 [96f1c3ee|82223591] (19+21/40) Accurately ripped
02 [298af616|3fd655d5] (20+21/41) Accurately ripped
03 [6f78a8da|5ed22fb8] (19+21/40) Accurately ripped
04 [f97ade7a|0830f1c3] (20+21/41) Accurately ripped
05 [27d87300|93c593dd] (19+21/40) Accurately ripped
06 [36d75366|4ff7f12a] (19+21/40) Accurately ripped
Offsetted by -664:
01 [65b6fab2] (00/40) No match (V2 was not tested)
02 [3a1d1d4a] (00/41) No match (V2 was not tested)
03 [0ac55119] (00/40) No match (V2 was not tested)
04 [895c8b92] (00/41) No match (V2 was not tested)
05 [aa8b5e60] (00/40) No match (V2 was not tested)
06 [7bbb518f] (00/40) No match (V2 was not tested)

Track Peak [ CRC32 ] [W/O NULL] [ LOG ]
– 99,8 [D15EE150] [DA5B57B9] CRC32
01 99,8 [27BCCDF3] [8AC52D70]
02 98,4 [A295CE64] [ABBE17C0]
03 85,0 [C7234B00] [60DA3B3E]
04 98,5 [51D60207] [D3DC5D02]
05 99,3 [B7149961] [AF92C8B2]
06 99,8 [D5872004] [4F7782C5]

Spock's Beard - Gluttons For Punishment - Live In '05 (2005)

All thanks go to the original releaser

Spock’s Beard in my Blog

Download Spock’s Beard – Gluttons For Punishment – Live In ’05 (2005):

Spock's Beard – Gluttons For Punishment – Live In '05 (2005) Download, Warez, DDL, Free, Full Album, Torrent, Legal.

Download