Spock's Beard – Don't Try This At Home (2000)

Download
Spock's Beard - Don't Try This At Home (2000)

Spock’s Beard – Don’t Try This At Home (2000)
EAC | Flac(Image) + Cue + Log & MP3 CBR 320Kbps
InsieOutMusic, IOMCD 060 | ~ 315 or 118 Mb | Scans(jpg) -> 19 Mb
Progressive Rock

Recorded on the last tour in Holland, this CD is only marred by the fact that it is too short by far at under an hour, but I have been assured by the record company that this was due to a problem with the quality of the tapes. That aside, here is one of my very favourite bands on stage and as I play this I can again see them in my mind’s eye, as they were that wonderful night at the LA2. In fact, this CD couldn’t possibly match up to that experience as it is only from being there that I realise that so much of their gig is missing from the CD.
But, and it is a huge "but" indeed, what is contained on this CD is more than enough evidence that the Beard really are one of the best in the world at what they do. They are all superb musicians, and with great vocals and wonderful songs how can these guys do any wrong? Spock’s Beard appear to be one of the very few modern ‘prog’ bands that have managed to find a place in the hearts of the traditionalists. I have been in love with their music since I first heard the original American release of their debut, and they just seem to be getting better and better. Many of the songs on this CD are from the latest album, but they also mix in some of the older stuff, and change songs so that the original is only a basis for them to play around.

Any one of these songs will make most modern prog bands want to pack up and go home. "Gibberish" has some of the best multi-part vocals that will ever be attempted by a modern rock band, while "Day For Night" is a perfect opener with its’ bombastic singalong style. This CD caused me a lot of problems in the sense that all of the time I should have been listening to other material I kept justifying to myself that I ought to play it just one more time.

If you want progressive melodic rock at its’ very best then it just can’t get any better than this. At least, not until their next album…

by kev rowland, progarchives

Spock’s Beard – Don’t Try This At Home (2000):

Spock's Beard - Don't Try This At Home (2000)

Tracklist:

1. Day for night (8:03)
2. Mouth of madness (5:06)
3. Skin (3:54)
4. Gibberish (4:48)
5. June (7:11)
6. The healing colors of sound (20:00)

Musicians:

– Neal Morse / vocals, guitar, keyboards
– Alan Morse / guitar
– Dave Meros / bass
– Nick d’Virgilio / drums, vocals
– Ryo Okumoto / keyboards

EAC Log
Exact Audio Copy V1.0 beta 3 from 29. August 2011

Отчёт EAC об извлечении, выполненном 10. октября 2013, 16:00

Spock’s Beard / Don’t Try This At Home

Дисковод: ASUS BW-12D1S-U Adapter: 1 ID: 1

Режим чтения : Достоверность
Использование точного потока : Да
Отключение кэша аудио : Да
Использование указателей C2 : Нет

Коррекция смещения при чтении : 667
Способность читать области Lead-in и Lead-out : Нет
Заполнение пропущенных сэмплов тишиной : Да
Удаление блоков с тишиной в начале и конце : Нет
При вычислениях CRC использовались нулевые сэмплы : Да
Интерфейс : Встроенный Win32-интерфейс для Win NT/2000

Выходной формат : Пользовательский кодировщик
Выбранный битрейт : 1024 kBit/s
Качество : Высокий
Добавление ID3-тега : Нет
Утилита сжатия : C:Program Files (x86)Exact Audio CopyFlacflac.exe
Дополнительные параметры : -V -8 -T "Date=%year%" -T "Genre=%genre%" %source%

TOC извлечённого CD

Трек | Старт | Длительность | Начальный сектор | Конечный сектор
––––––––––––––––––––––––––––––––––-
1 | 0:00.00 | 8:00.72 | 0 | 36071
2 | 8:00.72 | 5:07.23 | 36072 | 59119
3 | 13:08.20 | 3:55.65 | 59120 | 76809
4 | 17:04.10 | 4:40.70 | 76810 | 97879
5 | 21:45.05 | 7:11.47 | 97880 | 130251
6 | 28:56.52 | 21:01.33 | 130252 | 224859

Характеристики диапазона извлечения и сообщения об ошибках

Выбранный диапазон

Имя файла E:Spock’s Beard (Live & Singles)Spock’s Beard (2000) – Don’t Try This At HomeSpock’s Beard – Don’t Try This At Home.wav

Пиковый уровень 99.9 %
Скорость извлечения 7.3 X
Качество диапазона 100.0 %
CRC теста 5914CF82
CRC копии 5914CF82
Копирование… OK

Ошибок не произошло

AccurateRip: сводка

Трек 1 : извлечено точно (доверие 9) [E0AA5A55] (AR v2)
Трек 2 : извлечено точно (доверие 9) [6392DF88] (AR v2)
Трек 3 : извлечено точно (доверие 9) [DD2C7436] (AR v2)
Трек 4 : извлечено точно (доверие 9) [C5E541DD] (AR v2)
Трек 5 : извлечено точно (доверие 9) [93BEBE78] (AR v2)
Трек 6 : извлечено точно (доверие 8) [02C362F0] (AR v2)

Все треки извлечены точно

Конец отчёта

DR Log
foobar2000 1.2.9 / Dynamic Range Meter 1.1.1
log date: 2017-07-11 01:22:11

––––––––––––––––––––––––––––––––––––––––
Analyzed: Spock’s Beard / Don’t Try This At Home
––––––––––––––––––––––––––––––––––––––––

DR Peak RMS Duration Track
––––––––––––––––––––––––––––––––––––––––
DR13 0.00 dB -14.48 dB 8:01 01-Day For Night
DR12 0.00 dB -13.33 dB 5:07 02-Mouth Of Madness
DR12 0.00 dB -13.25 dB 3:56 03-Skin
DR12 0.00 dB -14.05 dB 4:41 04-Gibberish
DR15 0.00 dB -19.69 dB 7:12 05-June
DR12 0.00 dB -15.41 dB 21:01 06-The Healing Colors Of Sound
––––––––––––––––––––––––––––––––––––––––

Number of tracks: 6
Official DR value: DR13

Samplerate: 44100 Hz
Channels: 2
Bits per sample: 16
Bitrate: 857 kbps
Codec: FLAC

CUETools Log
[CUETools log; Date: 11.07.2017 1:18:32; Version: 2.1.4]
[CTDB TOCID: JUnh__K2e7Q27nqNeX5UNNVxXLI-] found.
Track | CTDB Status
1 | (47/48) Accurately ripped
2 | (47/48) Accurately ripped
3 | (47/48) Accurately ripped
4 | (47/48) Accurately ripped
5 | (47/48) Accurately ripped
6 | (48/48) Accurately ripped
[AccurateRip ID: 00098962-0033e7cd-470bb606] found.
Track [ CRC | V2 ] Status
01 [2b6ce612|e0aa5a55] (16+16/44) Accurately ripped
02 [5cdb62fb|6392df88] (16+16/44) Accurately ripped
03 [b13e44d4|dd2c7436] (16+16/44) Accurately ripped
04 [ffafc811|c5e541dd] (16+16/44) Accurately ripped
05 [e6e7bae4|93bebe78] (16+16/44) Accurately ripped
06 [279e4f9c|02c362f0] (15+15/42) Accurately ripped
Offsetted by -676:
01 [b935cb77] (06/44) Accurately ripped
02 [0a71987d] (06/44) Accurately ripped
03 [e270f30c] (06/44) Accurately ripped
04 [c6f26e78] (06/44) Accurately ripped
05 [94c7d4ea] (06/44) Accurately ripped
06 [19425680] (06/42) Accurately ripped

Track Peak [ CRC32 ] [W/O NULL] [ LOG ]
– 99,9 [5914CF82] [14866C39] CRC32
01 99,9 [E0DE977C] [A92D6781]
02 99,9 [C66C93AA] [5CDE7204]
03 99,9 [26C3C6B5] [20883BED]
04 99,9 [46F58132] [54FF580A]
05 99,9 [8D514A3D] [B72A4B5D]
06 99,9 [76FEA042] [F2A12EAA]

Spock's Beard - Don't Try This At Home (2000)

All thanks go to the original releaser

Spock’s Beard in my Blog

Download Spock’s Beard – Don’t Try This At Home (2000):

Spock's Beard – Don't Try This At Home (2000) Download, Warez, DDL, Free, Full Album, Torrent, Legal.

Download