Southside Johnny with LaBamba's Big Band – Grapefruit Moon: The Songs of Tom Waits (2008) {Blue Harp Inc.} | ViralVideoPk

Daily Dose of Free Downloads

Southside Johnny with LaBamba's Big Band – Grapefruit Moon: The Songs of Tom Waits (2008) {Blue Harp Inc.}

Download

Southside Johnny with LaBamba's Big Band - Grapefruit Moon: The Songs of Tom Waits (2008) {Blue Harp Inc.}

Southside Johnny with LaBamba’s Big Band – Grapefruit Moon: The Songs of Tom Waits (2008) {Blue Harp Inc.}
EAC rip (secure mode) | FLAC (tracks)+CUE+LOG -> 421 Mb | MP3 @320 -> 145 Mb
Full Artwork @ 600 dpi (jpg) -> 54 Mb | 5% repair rar
© 2008 Blue Harp Inc. / Evangeline Records | GELM 4200
Rock / Bar Band / Progressive Big Band / Rock & Roll / Heartland Rock

Grapefruit Moon: The Songs of Tom Waits is Southside’s tribute to one of his favorite songwriters, but also a pet sound: big band music. The idea to marry the brassy, ballsy sound of a big band to Tom Waits’ cinematic, character-driven songs has been sitting in the back of Southside’s mind for sometime.

Southside Johnny Lyon has been fronting one of America’s most consistently hard-rocking R&B show bands, Southside Johnny & the Asbury Jukes, for well over 30 years, so this album should come as something of a surprise to longtime fans – here Southside sings a dozen tunes from the songbook of Tom Waits alongside a jazzy, full-bodied big band led by Richie "LaBamba" Rosenberg, a longtime fixture in the Asbury Jukes horn section (and a member of Max Weinberg’s band on Late Night with Conan O’Brien). While this is very much a change of pace, it’s one that both Lyon and Rosenberg handle with confidence and aplomb; Lyon’s voice shows a touch more grain than it did in his salad days with the Jukes, but his sense of phrasing and showman’s touch is superb, and he brings swagger, heart, and sincerity to every performance here, and when Waits shows up for a duet on "Walk Away," the two trade lines as if they’ve been singing together for years. Lyon is also a shrewd judge of material, and the dozen numbers here fit his personality and vocal approach like a glove, especially "Please Call Me Baby," "New Coat of Paint," and "All the Time in the World." Rosenberg’s charts are robust and imaginative, honoring the strength of Waits’ melodies while giving the songs a chance to stretch out in new directions, and given that a majority of these songs came from the Beefheart-influenced period following Swordfishtrombones, these versions give them a new and very different musical personality steeped in big-band jazz, supper club blues, and classic pop. Is this rock & roll? Not quite, but it’s got a beat, it swings hard, and it boasts a great singer and a great band working their way through a first-class set of songs; Grapefruit Moon is an experiment that succeeds, and hopefully it won’t be too long before Lyon and Rosenberg try something like this again.

Southside Johnny with LaBamba's Big Band - Grapefruit Moon: The Songs of Tom Waits (2008) {Blue Harp Inc.}

tracklist:
01 – Yesterday Is Here
02 – Down, Down, Down
03 – Walk Away
04 – Please Call Me Baby
05 – Grapefruit Moon
06 – All The Time In The World
07 – Tango Till They’re Sore
08 – Johnsburgh, Illinois
09 – New Coat Of Paint
10 – Shiver Me Timbers
11 – Dead And Lovely
12 – Temptation

EAC log
Exact Audio Copy V0.99 prebeta 4 from 23. January 2008

EAC extraction logfile from 8. June 2009, 22:53

Southside Johnny / Grapefruit Moon The Songs of Tom Waits

Used drive : PIONEER DVD-RW DVR-216D Adapter: 4 ID: 0

Read mode : Secure
Utilize accurate stream : Yes
Defeat audio cache : Yes
Make use of C2 pointers : No

Read offset correction : 96
Overread into Lead-In and Lead-Out : No
Fill up missing offset samples with silence : Yes
Delete leading and trailing silent blocks : No
Null samples used in CRC calculations : Yes
Used interface : Native Win32 interface for Win NT & 2000
Gap handling : Appended to previous track

Used output format : User Defined Encoder
Selected bitrate : 128 kBit/s
Quality : High
Add ID3 tag : No
Command line compressor : C:Archivos de programaExact Audio CopyFlacflac.exe
Additional command line options : -8 -V -T "artist=%a" -T "title=%t" -T "album=%g" -T "date=%y" -T "tracknumber=%n" -T "genre=%m" %s

TOC of the extracted CD

Track | Start | Length | Start sector | End sector
––––––––––––––––––––––––––––-
1 | 0:00.00 | 5:29.11 | 0 | 24685
2 | 5:29.11 | 4:19.41 | 24686 | 44151
3 | 9:48.52 | 4:19.22 | 44152 | 63598
4 | 14:07.74 | 5:44.51 | 63599 | 89449
5 | 19:52.50 | 6:31.19 | 89450 | 118793
6 | 26:23.69 | 5:11.32 | 118794 | 142150
7 | 31:35.26 | 4:54.16 | 142151 | 164216
8 | 36:29.42 | 1:51.12 | 164217 | 172553
9 | 38:20.54 | 4:40.51 | 172554 | 193604
10 | 43:01.30 | 4:38.32 | 193605 | 214486
11 | 47:39.62 | 6:49.28 | 214487 | 245189
12 | 54:29.15 | 6:57.35 | 245190 | 276499

Track 1

Filename E:EAC_RIP_FLAC1 – Yesterday Is Here.wav

Pre-gap length 0:00:02.00

Peak level 99.7 %
Track quality 100.0 %
Test CRC 4C8321D2
Copy CRC 4C8321D2
Accurately ripped (confidence 6) [8BE3BA6F]
Copy OK

Track 2

Filename E:EAC_RIP_FLAC2 – Down, Down, Down.wav

Pre-gap length 0:00:00.28

Peak level 99.7 %
Track quality 100.0 %
Test CRC 845F84A0
Copy CRC 845F84A0
Accurately ripped (confidence 6) [D1BD42FF]
Copy OK

Track 3

Filename E:EAC_RIP_FLAC3 – Walk Away.wav

Pre-gap length 0:00:00.34

Peak level 99.7 %
Track quality 100.0 %
Test CRC 9C49B0FE
Copy CRC 9C49B0FE
Accurately ripped (confidence 6) [FC9CDA3E]
Copy OK

Track 4

Filename E:EAC_RIP_FLAC4 – Please Call Me Baby.wav

Pre-gap length 0:00:00.77

Peak level 99.7 %
Track quality 99.9 %
Test CRC 26409397
Copy CRC 26409397
Accurately ripped (confidence 6) [4D5B1145]
Copy OK

Track 5

Filename E:EAC_RIP_FLAC5 – Grapefruit Moon.wav

Pre-gap length 0:00:01.40

Peak level 99.7 %
Track quality 100.0 %
Test CRC BAF8BA88
Copy CRC BAF8BA88
Accurately ripped (confidence 6) [158A9BFC]
Copy OK

Track 6

Filename E:EAC_RIP_FLAC6 – All The Time In The World.wav

Peak level 99.7 %
Track quality 100.0 %
Test CRC 0613AD09
Copy CRC 0613AD09
Accurately ripped (confidence 6) [7D5BEB96]
Copy OK

Track 7

Filename E:EAC_RIP_FLAC7 – Tango Till They’re Sore.wav

Pre-gap length 0:00:01.40

Peak level 99.7 %
Track quality 99.9 %
Test CRC 840B5139
Copy CRC 840B5139
Accurately ripped (confidence 6) [B1BD0BF5]
Copy OK

Track 8

Filename E:EAC_RIP_FLAC8 – Johnsburgh, Illinois.wav

Pre-gap length 0:00:01.02

Peak level 99.7 %
Track quality 100.0 %
Test CRC 2947CE15
Copy CRC 2947CE15
Accurately ripped (confidence 6) [CEC2D863]
Copy OK

Track 9

Filename E:EAC_RIP_FLAC9 – New Coat Of Paint.wav

Pre-gap length 0:00:01.46

Peak level 99.7 %
Track quality 100.0 %
Test CRC 24C3DA43
Copy CRC 24C3DA43
Accurately ripped (confidence 6) [584BA49A]
Copy OK

Track 10

Filename E:EAC_RIP_FLAC10 – Shiver Me Timbers.wav

Pre-gap length 0:00:00.82

Peak level 99.7 %
Track quality 100.0 %
Test CRC 843391DB
Copy CRC 843391DB
Accurately ripped (confidence 6) [B48BA4DB]
Copy OK

Track 11

Filename E:EAC_RIP_FLAC11 – Dead And Lovely.wav

Pre-gap length 0:00:00.85

Peak level 99.7 %
Track quality 100.0 %
Test CRC 8C32330E
Copy CRC 8C32330E
Accurately ripped (confidence 6) [0242AC1D]
Copy OK

Track 12

Filename E:EAC_RIP_FLAC12 – Temptation.wav

Pre-gap length 0:00:01.24

Peak level 99.7 %
Track quality 100.0 %
Test CRC EF8B373E
Copy CRC EF8B373E
Accurately ripped (confidence 6) [402357E3]
Copy OK

All tracks accurately ripped

No errors occurred

End of status report

Southside Johnny with LaBamba's Big Band - Grapefruit Moon: The Songs of Tom Waits (2008) {Blue Harp Inc.}

Southside Johnny with LaBamba's Big Band - Grapefruit Moon: The Songs of Tom Waits (2008) {Blue Harp Inc.}

All thanks goes to the original releaser!

Southside Johnny with LaBamba's Big Band – Grapefruit Moon: The Songs of Tom Waits (2008) {Blue Harp Inc.} Download, Warez, DDL, Free, Full Album, Torrent, Legal.

Download


  • Recent Posts

  • Recent Tags