Southern Culture On The Skids – The Electric Pinecones (2016) {Kudzu}

Download
Southern Culture On The Skids - The Electric Pinecones (2016) {Kudzu}

Southern Culture On The Skids – The Electric Pinecones (2016)
XLD Rip | FLAC (tracks+.cue, log) | Covers | 266 mb | MP3 CBR 320kbps | RAR | 91 mb
Rock, Indie Rock, Rockabilly | Label: Kudzu Records – KUD-CD-005

Southern Culture On The Skids’ new studio album, The Electric Pinecones, released September 16th on the band’s own imprint, Kudzu Records. Featuring a dozen original tunes – 11 brand new songs and a whole-lotta NOLA remake of the SCOTS classic, “Swamp Fox”.

Conventional wisdom tells us that change is good, and there are plenty of bands that have been well served by shaking up their formula once in a while. Southern Culture on the Skids have been serving up their own distinct brand of deep-fried hillbilly rock since 1990, and the band has never failed to deliver on-stage and in the studio. But with 2016’s The Electric Pinecones, SCOTS have stepped a few paces outside their usual creative boundaries, and with enjoyable results. The album’s title comes from a short-lived SCOTS side project, the Pinecones, in which the bandmembers indulged their enthusiasm for folk-rock, psychedelia, and the moodier side of ’60s pop. The Electric Pinecones for the most part follows the same creative template as the group it was named for, though it doesn’t entirely abandon the traditional Southern Culture on the Skids approach. "Swamp Fox," "Rice and Beans," and "Baby I Like You" certain fit SCOTS’ traditional creative template, and they confirm the band hasn’t run short on good ideas. But the electrified swamp pop of "Freak Flag," the downbeat pop of "Dirt Road," the cool and shadowy pop-psych mood of "Grey Skies" and "Waiting on You," and the trippy Buddy Holly variant "I Ain’t Gonna Hang Around" are great tunes and outstanding performances that reveal new facets of this band’s talents. Two and a half decades of shows have given Southern Culture on the Skids the taut and intuitive feel of seasoned players who mesh beautifully, and Rick Miller’s guitar work is as inspired and versatile as ever, while bassist Mary Huff and drummer Dave Hartman remain an excellent rhythm section. The Electric Pinecones is a reminder of why Southern Culture on the Skids are one of America’s most underrated rock bands – they’re great at what they do, and they have a lot more cards up their sleeve than most folks expect.

AllMusic Review by Mark Deming

Tracklist:

1. Freak Flag (03:10)
2. Dirt Road (03:04)
3. Baby I Like You (02:25)
4. I Ain’t Gonna Hang Around (02:19)
5. Grey Skies (03:56)
6. Waiting On You (04:22)
7. Midnight Caller (03:51)
8. Swamp Fox – The Original (03:25)
9. Downward Mobility (03:06)
10. Rice and Beans (02:09)
11. Given to Me (03:29)
12. Slowly Losing My Mind (03:01)

Southern Culture On The Skids - The Electric Pinecones (2016) {Kudzu}
XLD log
X Lossless Decoder version 20161007 (149.3)

XLD extraction logfile from 2017-02-10 00:12:38 -0800

Southern Culture On The Skids / The Electric Pinecones

Used drive : Optiarc BD ROM BC-5550H (revision B881)
Media type : Pressed CD

Ripper mode : XLD Secure Ripper
Disable audio cache : OK for the drive with a cache less than 1375KiB
Make use of C2 pointers : NO
Read offset correction : 48
Max retry count : 20
Gap status : Analyzed, Appended (except HTOA)

TOC of the extracted CD
Track | Start | Length | Start sector | End sector
––––––––––––––––––––––––––––-
1 | 00:00:00 | 03:10:15 | 0 | 14264
2 | 03:10:15 | 03:04:03 | 14265 | 28067
3 | 06:14:18 | 02:25:08 | 28068 | 38950
4 | 08:39:26 | 02:18:58 | 38951 | 49358
5 | 10:58:09 | 03:55:72 | 49359 | 67055
6 | 14:54:06 | 04:21:59 | 67056 | 86689
7 | 19:15:65 | 03:51:26 | 86690 | 104040
8 | 23:07:16 | 03:25:17 | 104041 | 119432
9 | 26:32:33 | 03:06:03 | 119433 | 133385
10 | 29:38:36 | 02:09:27 | 133386 | 143087
11 | 31:47:63 | 03:29:27 | 143088 | 158789
12 | 35:17:15 | 03:00:52 | 158790 | 172341

AccurateRip Summary (DiscID: 0011054d-009ffee7-af08f90c)
Track 01 : OK (v2, confidence 3/3)
Track 02 : OK (v2, confidence 3/3)
Track 03 : OK (v2, confidence 3/3)
Track 04 : OK (v2, confidence 3/3)
Track 05 : OK (v2, confidence 3/3)
Track 06 : OK (v2, confidence 3/3)
Track 07 : OK (v2, confidence 3/3)
Track 08 : OK (v2, confidence 3/3)
Track 09 : OK (v2, confidence 3/3)
Track 10 : OK (v2, confidence 3/3)
Track 11 : OK (v2, confidence 3/3)
Track 12 : OK (v2, confidence 3/3)
->All tracks accurately ripped.

All Tracks
Album gain : -8.79 dB
Peak : 0.963867
Statistics
Read error : 0
Jitter error (maybe fixed) : 0
Retry sector count : 0
Damaged sector count : 0

Track 01
Filename : /Volumes/Archive_01/CD Album Archive Files/FLAC Uploads/Southern Culture on the Skids/Southern Culture On The Skids – The Electric Pinecones (2016) [FLAC]/01-01 – Southern Culture On The Skids – Freak Flag.flac
Pre-gap length : 00:02:00

Track gain : -9.06 dB
Peak : 0.963837
CRC32 hash (test run) : 36285842
CRC32 hash : 36285842
CRC32 hash (skip zero) : BFDD2798
AccurateRip v1 signature : B55818D6
AccurateRip v2 signature : 6C9E5238
->Accurately ripped (v2, confidence 3/3)
Statistics
Read error : 0
Jitter error (maybe fixed) : 0
Retry sector count : 0
Damaged sector count : 0

Track 02
Filename : /Volumes/Archive_01/CD Album Archive Files/FLAC Uploads/Southern Culture on the Skids/Southern Culture On The Skids – The Electric Pinecones (2016) [FLAC]/01-02 – Southern Culture On The Skids – Dirt Road.flac

Track gain : -10.11 dB
Peak : 0.963867
CRC32 hash (test run) : 93C41A05
CRC32 hash : 93C41A05
CRC32 hash (skip zero) : F31D5CB9
AccurateRip v1 signature : DCD9B0D1
AccurateRip v2 signature : EB54BED6
->Accurately ripped (v2, confidence 3/3)
Statistics
Read error : 0
Jitter error (maybe fixed) : 0
Retry sector count : 0
Damaged sector count : 0

Track 03
Filename : /Volumes/Archive_01/CD Album Archive Files/FLAC Uploads/Southern Culture on the Skids/Southern Culture On The Skids – The Electric Pinecones (2016) [FLAC]/01-03 – Southern Culture On The Skids – Baby I Like You.flac

Track gain : -8.11 dB
Peak : 0.963806
CRC32 hash (test run) : AC75DB25
CRC32 hash : AC75DB25
CRC32 hash (skip zero) : 05E562C3
AccurateRip v1 signature : A51FFDF3
AccurateRip v2 signature : 9497D6B1
->Accurately ripped (v2, confidence 3/3)
Statistics
Read error : 0
Jitter error (maybe fixed) : 0
Retry sector count : 0
Damaged sector count : 0

Track 04
Filename : /Volumes/Archive_01/CD Album Archive Files/FLAC Uploads/Southern Culture on the Skids/Southern Culture On The Skids – The Electric Pinecones (2016) [FLAC]/01-04 – Southern Culture On The Skids – I Ain’t Gonna Hang Around.flac

Track gain : -9.16 dB
Peak : 0.963806
CRC32 hash (test run) : B665697F
CRC32 hash : B665697F
CRC32 hash (skip zero) : 6CD3BF5C
AccurateRip v1 signature : 6D6B54FA
AccurateRip v2 signature : 9F65AA57
->Accurately ripped (v2, confidence 3/3)
Statistics
Read error : 0
Jitter error (maybe fixed) : 0
Retry sector count : 0
Damaged sector count : 0

Track 05
Filename : /Volumes/Archive_01/CD Album Archive Files/FLAC Uploads/Southern Culture on the Skids/Southern Culture On The Skids – The Electric Pinecones (2016) [FLAC]/01-05 – Southern Culture On The Skids – Grey Skies.flac

Track gain : -7.37 dB
Peak : 0.963806
CRC32 hash (test run) : 3632805D
CRC32 hash : 3632805D
CRC32 hash (skip zero) : 0EC781B1
AccurateRip v1 signature : 41D9EF5C
AccurateRip v2 signature : B2D153D3
->Accurately ripped (v2, confidence 3/3)
Statistics
Read error : 0
Jitter error (maybe fixed) : 0
Retry sector count : 0
Damaged sector count : 0

Track 06
Filename : /Volumes/Archive_01/CD Album Archive Files/FLAC Uploads/Southern Culture on the Skids/Southern Culture On The Skids – The Electric Pinecones (2016) [FLAC]/01-06 – Southern Culture On The Skids – Waiting On You.flac

Track gain : -8.65 dB
Peak : 0.963837
CRC32 hash (test run) : A038975C
CRC32 hash : A038975C
CRC32 hash (skip zero) : 3AA8EF92
AccurateRip v1 signature : C5644928
AccurateRip v2 signature : 0BF6C06C
->Accurately ripped (v2, confidence 3/3)
Statistics
Read error : 0
Jitter error (maybe fixed) : 0
Retry sector count : 0
Damaged sector count : 0

Track 07
Filename : /Volumes/Archive_01/CD Album Archive Files/FLAC Uploads/Southern Culture on the Skids/Southern Culture On The Skids – The Electric Pinecones (2016) [FLAC]/01-07 – Southern Culture On The Skids – Midnight Caller.flac

Track gain : -8.62 dB
Peak : 0.963867
CRC32 hash (test run) : BAD8C684
CRC32 hash : BAD8C684
CRC32 hash (skip zero) : 3558C092
AccurateRip v1 signature : C9868164
AccurateRip v2 signature : 1E45470D
->Accurately ripped (v2, confidence 3/3)
Statistics
Read error : 0
Jitter error (maybe fixed) : 0
Retry sector count : 0
Damaged sector count : 0

Track 08
Filename : /Volumes/Archive_01/CD Album Archive Files/FLAC Uploads/Southern Culture on the Skids/Southern Culture On The Skids – The Electric Pinecones (2016) [FLAC]/01-08 – Southern Culture On The Skids – Swamp Fox – The Original.flac

Track gain : -9.25 dB
Peak : 0.963837
CRC32 hash (test run) : DAFD98A2
CRC32 hash : DAFD98A2
CRC32 hash (skip zero) : 69216FF8
AccurateRip v1 signature : 9BE10506
AccurateRip v2 signature : BA1C2926
->Accurately ripped (v2, confidence 3/3)
Statistics
Read error : 0
Jitter error (maybe fixed) : 0
Retry sector count : 0
Damaged sector count : 0

Track 09
Filename : /Volumes/Archive_01/CD Album Archive Files/FLAC Uploads/Southern Culture on the Skids/Southern Culture On The Skids – The Electric Pinecones (2016) [FLAC]/01-09 – Southern Culture On The Skids – Downward Mobility.flac

Track gain : -7.99 dB
Peak : 0.963806
CRC32 hash (test run) : 5DE81A32
CRC32 hash : 5DE81A32
CRC32 hash (skip zero) : 8DE37E54
AccurateRip v1 signature : 8FE17E14
AccurateRip v2 signature : 99504D49
->Accurately ripped (v2, confidence 3/3)
Statistics
Read error : 0
Jitter error (maybe fixed) : 0
Retry sector count : 0
Damaged sector count : 0

Track 10
Filename : /Volumes/Archive_01/CD Album Archive Files/FLAC Uploads/Southern Culture on the Skids/Southern Culture On The Skids – The Electric Pinecones (2016) [FLAC]/01-10 – Southern Culture On The Skids – Rice and Beans.flac

Track gain : -7.71 dB
Peak : 0.963806
CRC32 hash (test run) : 889FD2C6
CRC32 hash : 889FD2C6
CRC32 hash (skip zero) : 7E78970A
AccurateRip v1 signature : E136C6BA
AccurateRip v2 signature : 7EA92D46
->Accurately ripped (v2, confidence 3/3)
Statistics
Read error : 0
Jitter error (maybe fixed) : 0
Retry sector count : 0
Damaged sector count : 0

Track 11
Filename : /Volumes/Archive_01/CD Album Archive Files/FLAC Uploads/Southern Culture on the Skids/Southern Culture On The Skids – The Electric Pinecones (2016) [FLAC]/01-11 – Southern Culture On The Skids – Given to Me.flac

Track gain : -7.74 dB
Peak : 0.963837
CRC32 hash (test run) : 5719CD18
CRC32 hash : 5719CD18
CRC32 hash (skip zero) : 4428D890
AccurateRip v1 signature : 119797CB
AccurateRip v2 signature : AD83677E
->Accurately ripped (v2, confidence 3/3)
Statistics
Read error : 0
Jitter error (maybe fixed) : 0
Retry sector count : 0
Damaged sector count : 0

Track 12
Filename : /Volumes/Archive_01/CD Album Archive Files/FLAC Uploads/Southern Culture on the Skids/Southern Culture On The Skids – The Electric Pinecones (2016) [FLAC]/01-12 – Southern Culture On The Skids – Slowly Losing My Mind.flac

Track gain : -8.14 dB
Peak : 0.963806
CRC32 hash (test run) : C5BEFC43
CRC32 hash : C5BEFC43
CRC32 hash (skip zero) : 74E3191F
AccurateRip v1 signature : A17B00DC
AccurateRip v2 signature : 7F33B91D
->Accurately ripped (v2, confidence 3/3)
Statistics
Read error : 0
Jitter error (maybe fixed) : 0
Retry sector count : 0
Damaged sector count : 0

No errors occurred

End of status report

––-BEGIN XLD SIGNATURE––-
Cpes4CJy10QGGKGK2lkn4.Oiwe2g1s8pMM11ushOU5NyCf1ey_yo75DcC6irnDCkzck0_SInJsCeNLxJ.QupiKDh.RiiIFQ_ot2qR1W
––-END XLD SIGNATURE––-

Thanks to the Original customer.

Southern Culture On The Skids – The Electric Pinecones (2016) {Kudzu} Download, Warez, DDL, Free, Full Album, Torrent, Legal.

Download