Soul Scratch – Pushing Fire (2017)

Download
Soul Scratch - Pushing Fire (2017)

Soul Scratch – Pushing Fire (2017)
EAC Rip | FLAC (Tracks) +cue, log – 182 MB | 00:32:44
Funk, Soul | Label: Colemine Records | Release Year: 2017

From the first few notes, this record grabs you. It’s raw soul and funk music crafted to perfection. Wailing vocals, soaring horns, and a super tight rhythm section. With a dirty production style, Soul Scratch serves up something that’s familiar, fresh, and never more relevant.

TRACKLIST

01. Pacified
02. Look How Far We’ve Come
03. The Road Looks Long
04. Odessa Heat
05. It’s Not Over
06. Kiss Me In The Morning
07. Be Kind
08. Empty Cup
09. Fireside Lounge
10. Thank You

EAC
Exact Audio Copy V1.1 from 23. June 2015

EAC extraction logfile from 9. February 2017, 12:58

Soul Scratch / Pushing Fire

Used drive : HL-DT-STDVDRAM GT50N Adapter: 1 ID: 0

Read mode : Secure
Utilize accurate stream : Yes
Defeat audio cache : Yes
Make use of C2 pointers : No

Read offset correction : 103
Overread into Lead-In and Lead-Out : No
Fill up missing offset samples with silence : Yes
Delete leading and trailing silent blocks : No
Null samples used in CRC calculations : Yes
Used interface : Native Win32 interface for Win NT & 2000
Gap handling : Appended to previous track

Used output format : User Defined Encoder
Selected bitrate : 1024 kBit/s
Quality : High
Add ID3 tag : No
Command line compressor : C:Program Files (x86)Exact Audio CopyFlacflac.exe
Additional command line options : -8 -e -V -T "ARTIST=%artist%" -T "TITLE=%title%" -T "ALBUM=%albumtitle%" -T "DATE=%year%" -T "TRACKNUMBER=%tracknr%" -T "GENRE=%genre%" -T "PERFORMER=%albuminterpret%" -T "COMPOSER=%composer%" %haslyrics%–tag-from-file=LYRICS="%lyricsfile%"%haslyrics% -T "ALBUMARTIST=%albumartist%" -T "DISCNUMBER=%cdnumber%" -T "TOTALDISCS=%totalcds%" -T "TOTALTRACKS=%numtracks%" -T "COMMENT=%comment%" %source% -o %dest%

TOC of the extracted CD

Track | Start | Length | Start sector | End sector
––––––––––––––––––––––––––––-
1 | 0:00.00 | 3:20.55 | 0 | 15054
2 | 3:20.55 | 2:54.49 | 15055 | 28153
3 | 6:15.29 | 2:52.23 | 28154 | 41076
4 | 9:07.52 | 3:12.73 | 41077 | 55549
5 | 12:20.50 | 4:44.62 | 55550 | 76911
6 | 17:05.37 | 3:16.32 | 76912 | 91643
7 | 20:21.69 | 2:49.32 | 91644 | 104350
8 | 23:11.26 | 3:03.13 | 104351 | 118088
9 | 26:14.39 | 2:40.54 | 118089 | 130142
10 | 28:55.18 | 4:03.43 | 130143 | 148410

Track 1

Filename C:Rips v2Soul Scratch – Pushing Fire (FLAC)1 – Pacified.wav

Pre-gap length 0:00:02.00

Peak level 96.0 %
Extraction speed 2.3 X
Track quality 100.0 %
Test CRC F0FAF801
Copy CRC F0FAF801
Track not present in AccurateRip database
Copy OK

Track 2

Filename C:Rips v2Soul Scratch – Pushing Fire (FLAC)2 – Look How Far We’ve Come.wav

Pre-gap length 0:00:01.00

Peak level 96.1 %
Extraction speed 2.5 X
Track quality 100.0 %
Test CRC 1F97A7BF
Copy CRC 1F97A7BF
Track not present in AccurateRip database
Copy OK

Track 3

Filename C:Rips v2Soul Scratch – Pushing Fire (FLAC)3 – The Road Looks Long.wav

Pre-gap length 0:00:01.00

Peak level 96.2 %
Extraction speed 2.0 X
Track quality 99.9 %
Test CRC 66BEFDAA
Copy CRC 66BEFDAA
Track not present in AccurateRip database
Copy OK

Track 4

Filename C:Rips v2Soul Scratch – Pushing Fire (FLAC)4 – Odessa Heat.wav

Pre-gap length 0:00:01.00

Peak level 92.9 %
Extraction speed 2.9 X
Track quality 100.0 %
Test CRC 083664E7
Copy CRC 083664E7
Track not present in AccurateRip database
Copy OK

Track 5

Filename C:Rips v2Soul Scratch – Pushing Fire (FLAC)5 – It’s Not Over.wav

Pre-gap length 0:00:01.00

Peak level 96.1 %
Extraction speed 2.7 X
Track quality 99.9 %
Test CRC 763BA9A4
Copy CRC 763BA9A4
Track not present in AccurateRip database
Copy OK

Track 6

Filename C:Rips v2Soul Scratch – Pushing Fire (FLAC)6 – Kiss Me in the Morning.wav

Pre-gap length 0:00:01.00

Peak level 95.6 %
Extraction speed 3.3 X
Track quality 100.0 %
Test CRC 1ED9E529
Copy CRC 1ED9E529
Track not present in AccurateRip database
Copy OK

Track 7

Filename C:Rips v2Soul Scratch – Pushing Fire (FLAC)7 – Be Kind.wav

Pre-gap length 0:00:01.00

Peak level 96.2 %
Extraction speed 3.4 X
Track quality 100.0 %
Test CRC D8A4D021
Copy CRC D8A4D021
Track not present in AccurateRip database
Copy OK

Track 8

Filename C:Rips v2Soul Scratch – Pushing Fire (FLAC)8 – Empty Cup.wav

Pre-gap length 0:00:01.00

Peak level 96.3 %
Extraction speed 3.5 X
Track quality 100.0 %
Test CRC 3022011C
Copy CRC 3022011C
Track not present in AccurateRip database
Copy OK

Track 9

Filename C:Rips v2Soul Scratch – Pushing Fire (FLAC)9 – Fireside Lounge.wav

Pre-gap length 0:00:01.00

Peak level 95.8 %
Extraction speed 3.6 X
Track quality 100.0 %
Test CRC A88979EA
Copy CRC A88979EA
Track not present in AccurateRip database
Copy OK

Track 10

Filename C:Rips v2Soul Scratch – Pushing Fire (FLAC)10 – Thank You.wav

Pre-gap length 0:00:01.00

Peak level 96.2 %
Extraction speed 4.0 X
Track quality 100.0 %
Test CRC 1B9ED616
Copy CRC 1B9ED616
Track not present in AccurateRip database
Copy OK

None of the tracks are present in the AccurateRip database

No errors occurred

End of status report

–– CUETools DB Plugin V2.1.6

[CTDB TOCID: iF_mdeBLVU2SlbTjBfPb6oaLDss-] disk not present in database
Submit result: iF_mdeBLVU2SlbTjBfPb6oaLDss- has been uploaded

==== Log checksum 9304C89E61E54FFADD2371E222F32C7D0AE83D5EEF8B28FBD9F898089EA65432 ====

All thanks go to the original releaser

Soul Scratch – Pushing Fire (2017) Download, Warez, DDL, Free, Full Album, Torrent, Legal.

Download