Soul-Junk – 1960 (2009) {Sound Familyre}

Download
Soul-Junk - 1960 (2009) {Sound Familyre}

Soul-Junk – 1960 (2009) {Sound Familyre}
EAC Rip | FLAC with CUE and log | scans | 436 mb
MP3 CBR 320kbps | RAR | 144 mb
Genre: indie rock

1960 is the 2009 album by Soul-Junk, originally a ome-man project from Glen Galloway, who changed his name to Glen Galaxy after leaving Trumans Water of San Diego, California. As Galaxy, Soul-Junk was a one-man project that later expanded to a full band. This was released by the Sound Familyre label. This pressing is from a promotional disc that came in a simple cardboard cover, so no scans for a full cover like the non-promo pressing.

Soul-Junk - 1960 (2009) {Sound Familyre}

01. (Aleph) Let The Dead Bury Their Dead, You Go Preach The Kingdom Of God
02. (Beth) Javanese
03. (Gimel) The Teeth
04. (Daleth) Kitchen Qualify
05. (He) Rudolph
06. (Waw) Screaming Lobster
07. (Zayin) Threewise
08. (Heth) Rudolph
09. (Teth) Hangtime
10. (Yod) Sawp Jaws
11. (Kaph) Ahasuerus Jig
12. (Lamed) Forever O Lord Your Word Is Settled In Heaven
13. (Mem) Sweeter Than Honey
14. (Nun) Your Testimonies
15. (Samek) Zizzer
16. (Ayin) Jauncy Burza
17. (Pe) Tack & Yearn
18. (Tsadde) Born
19. (Qoph) Scottish Yak
20. (Resh) Solar Mist
21. (Shin) Big Bear Cassiopeia
22. (Tau) Persian Earball

Glen Galaxy
Brian Cantrell
Emil Nikolaisen
TOdd Fadel
Joshua Stamper
Jie Jin
EliN Smith
Daniel Smith
Lenny Smith

Produced by Daniel C. Smith & Glen Galaxy

EAC Log
Exact Audio Copy V1.1 from 23. June 2015

EAC extraction logfile from 28. January 2017, 12:07

Soul-Junk / 1960

Used drive : TEAC DVD-ROM DV-28SW Adapter: 1 ID: 0

Read mode : Secure
Utilize accurate stream : Yes
Defeat audio cache : Yes
Make use of C2 pointers : No

Read offset correction : 6
Overread into Lead-In and Lead-Out : No
Fill up missing offset samples with silence : Yes
Delete leading and trailing silent blocks : No
Null samples used in CRC calculations : Yes
Used interface : Native Win32 interface for Win NT & 2000
Gap handling : Appended to previous track

Used output format : Internal WAV Routines
Sample format : 44.100 Hz; 16 Bit; Stereo

TOC of the extracted CD

Track | Start | Length | Start sector | End sector
––––––––––––––––––––––––––––-
1 | 0:00.00 | 4:04.41 | 0 | 18340
2 | 4:04.41 | 4:04.63 | 18341 | 36703
3 | 8:09.29 | 2:23.60 | 36704 | 47488
4 | 10:33.14 | 2:58.66 | 47489 | 60904
5 | 13:32.05 | 1:31.26 | 60905 | 67755
6 | 15:03.31 | 4:12.18 | 67756 | 86673
7 | 19:15.49 | 3:32.49 | 86674 | 102622
8 | 22:48.23 | 1:47.43 | 102623 | 110690
9 | 24:35.66 | 2:44.22 | 110691 | 123012
10 | 27:20.13 | 2:16.48 | 123013 | 133260
11 | 29:36.61 | 1:21.22 | 133261 | 139357
12 | 30:58.08 | 3:06.57 | 139358 | 153364
13 | 34:04.65 | 2:53.18 | 153365 | 166357
14 | 36:58.08 | 3:52.15 | 166358 | 183772
15 | 40:50.23 | 2:02.54 | 183773 | 192976
16 | 42:53.02 | 2:42.69 | 192977 | 205195
17 | 45:35.71 | 3:38.66 | 205196 | 221611
18 | 49:14.62 | 2:00.47 | 221612 | 230658
19 | 51:15.34 | 2:47.31 | 230659 | 243214
20 | 54:02.65 | 2:36.44 | 243215 | 254958
21 | 56:39.34 | 3:57.68 | 254959 | 272801
22 | 60:37.27 | 3:49.01 | 272802 | 289977

Track 1

Filename C:My DocumentsMy FLACSoul-Junk – 1960 (2009) [FLAC]1 – (Aleph) Let The Dead Bury Their Dead, You Go Preach The Kingdom Of God.wav

Pre-gap length 0:00:02.00

Peak level 98.9 %
Extraction speed 1.1 X
Track quality 100.0 %
Test CRC 184F402B
Copy CRC 184F402B
Track not present in AccurateRip database
Copy OK

Track 2

Filename C:My DocumentsMy FLACSoul-Junk – 1960 (2009) [FLAC]2 – (Beth) Javanese.wav

Pre-gap length 0:00:01.00

Peak level 98.9 %
Extraction speed 1.3 X
Track quality 100.0 %
Test CRC 21DEF7AC
Copy CRC 21DEF7AC
Track not present in AccurateRip database
Copy OK

Track 3

Filename C:My DocumentsMy FLACSoul-Junk – 1960 (2009) [FLAC]3 – (Gimel) The Teeth.wav

Pre-gap length 0:00:02.00

Peak level 98.9 %
Extraction speed 1.2 X
Track quality 100.0 %
Test CRC AE1FF035
Copy CRC AE1FF035
Track not present in AccurateRip database
Copy OK

Track 4

Filename C:My DocumentsMy FLACSoul-Junk – 1960 (2009) [FLAC]4 – (Daleth) Kitchen Qualify.wav

Peak level 98.9 %
Extraction speed 1.3 X
Track quality 100.0 %
Test CRC F7FCB364
Copy CRC F7FCB364
Track not present in AccurateRip database
Copy OK

Track 5

Filename C:My DocumentsMy FLACSoul-Junk – 1960 (2009) [FLAC]5 – (He) Rudolph.wav

Pre-gap length 0:00:01.00

Peak level 98.8 %
Extraction speed 1.1 X
Track quality 100.0 %
Test CRC 14397E85
Copy CRC 14397E85
Track not present in AccurateRip database
Copy OK

Track 6

Filename C:My DocumentsMy FLACSoul-Junk – 1960 (2009) [FLAC]6 – (Waw) Screaming Lobster.wav

Peak level 98.9 %
Extraction speed 1.3 X
Track quality 99.9 %
Test CRC 39867070
Copy CRC 39867070
Track not present in AccurateRip database
Copy OK

Track 7

Filename C:My DocumentsMy FLACSoul-Junk – 1960 (2009) [FLAC]7 – (Zayin) Threewise.wav

Pre-gap length 0:00:02.00

Peak level 98.9 %
Extraction speed 1.6 X
Track quality 100.0 %
Test CRC 4832F0B2
Copy CRC 4832F0B2
Track not present in AccurateRip database
Copy OK

Track 8

Filename C:My DocumentsMy FLACSoul-Junk – 1960 (2009) [FLAC]8 – (Heth) Rudolph.wav

Peak level 98.9 %
Extraction speed 1.1 X
Track quality 99.9 %
Test CRC 28F06486
Copy CRC 28F06486
Track not present in AccurateRip database
Copy OK

Track 9

Filename C:My DocumentsMy FLACSoul-Junk – 1960 (2009) [FLAC]9 – (Teth) Hangtime.wav

Pre-gap length 0:00:02.00

Peak level 98.9 %
Extraction speed 1.6 X
Track quality 100.0 %
Test CRC 660D66F2
Copy CRC 660D66F2
Track not present in AccurateRip database
Copy OK

Track 10

Filename C:My DocumentsMy FLACSoul-Junk – 1960 (2009) [FLAC]10 – (Yod) Sawp Jaws.wav

Peak level 98.9 %
Extraction speed 1.5 X
Track quality 100.0 %
Test CRC 0A2A274F
Copy CRC 0A2A274F
Track not present in AccurateRip database
Copy OK

Track 11

Filename C:My DocumentsMy FLACSoul-Junk – 1960 (2009) [FLAC]11 – (Kaph) Ahasuerus Jig.wav

Pre-gap length 0:00:02.00

Peak level 98.8 %
Extraction speed 1.0 X
Track quality 99.8 %
Test CRC C33CFE2E
Copy CRC C33CFE2E
Track not present in AccurateRip database
Copy OK

Track 12

Filename C:My DocumentsMy FLACSoul-Junk – 1960 (2009) [FLAC]12 – (Lamed) Forever O Lord Your Word Is Settled In Heaven.wav

Peak level 98.8 %
Extraction speed 1.4 X
Track quality 100.0 %
Test CRC A54DBAEC
Copy CRC A54DBAEC
Track not present in AccurateRip database
Copy OK

Track 13

Filename C:My DocumentsMy FLACSoul-Junk – 1960 (2009) [FLAC]13 – (Mem) Sweeter Than Honey.wav

Pre-gap length 0:00:01.00

Peak level 98.8 %
Extraction speed 1.7 X
Track quality 100.0 %
Test CRC 5DD4D2B9
Copy CRC 5DD4D2B9
Track not present in AccurateRip database
Copy OK

Track 14

Filename C:My DocumentsMy FLACSoul-Junk – 1960 (2009) [FLAC]14 – (Nun) Your Testimonies.wav

Pre-gap length 0:00:01.00

Peak level 98.8 %
Extraction speed 1.9 X
Track quality 100.0 %
Test CRC D0588C82
Copy CRC D0588C82
Track not present in AccurateRip database
Copy OK

Track 15

Filename C:My DocumentsMy FLACSoul-Junk – 1960 (2009) [FLAC]15 – (Samek) Zizzer.wav

Peak level 98.8 %
Extraction speed 1.7 X
Track quality 100.0 %
Test CRC F44B30C8
Copy CRC F44B30C8
Track not present in AccurateRip database
Copy OK

Track 16

Filename C:My DocumentsMy FLACSoul-Junk – 1960 (2009) [FLAC]16 – (Ayin) Jauncy Burza.wav

Pre-gap length 0:00:01.00

Peak level 98.9 %
Extraction speed 1.8 X
Track quality 100.0 %
Test CRC D4277E52
Copy CRC D4277E52
Track not present in AccurateRip database
Copy OK

Track 17

Filename C:My DocumentsMy FLACSoul-Junk – 1960 (2009) [FLAC]17 – (Pe) Tack & Yearn.wav

Pre-gap length 0:00:01.00

Peak level 98.8 %
Extraction speed 1.9 X
Track quality 100.0 %
Test CRC E056D98C
Copy CRC E056D98C
Track not present in AccurateRip database
Copy OK

Track 18

Filename C:My DocumentsMy FLACSoul-Junk – 1960 (2009) [FLAC]18 – (Tsadde) Born.wav

Pre-gap length 0:00:01.00

Peak level 98.8 %
Extraction speed 1.7 X
Track quality 100.0 %
Test CRC 8B5E33DD
Copy CRC 8B5E33DD
Track not present in AccurateRip database
Copy OK

Track 19

Filename C:My DocumentsMy FLACSoul-Junk – 1960 (2009) [FLAC]19 – (Qoph) Scottish Yak.wav

Pre-gap length 0:00:00.41

Peak level 98.9 %
Extraction speed 1.8 X
Track quality 100.0 %
Test CRC 7C8BD5BB
Copy CRC 7C8BD5BB
Track not present in AccurateRip database
Copy OK

Track 20

Filename C:My DocumentsMy FLACSoul-Junk – 1960 (2009) [FLAC]20 – (Resh) Solar Mist.wav

Peak level 98.8 %
Extraction speed 1.9 X
Track quality 100.0 %
Test CRC D01071E9
Copy CRC D01071E9
Track not present in AccurateRip database
Copy OK

Track 21

Filename C:My DocumentsMy FLACSoul-Junk – 1960 (2009) [FLAC]21 – (Shin) Big Bear Cassiopeia.wav

Pre-gap length 0:00:01.00

Peak level 98.9 %
Extraction speed 1.7 X
Track quality 99.9 %
Test CRC 1C71E077
Copy CRC 1C71E077
Track not present in AccurateRip database
Copy OK

Track 22

Filename C:My DocumentsMy FLACSoul-Junk – 1960 (2009) [FLAC]22 – (Tau) Persian Earball.wav

Pre-gap length 0:00:02.00

Peak level 98.9 %
Extraction speed 2.1 X
Track quality 100.0 %
Test CRC 946CAFEF
Copy CRC 946CAFEF
Track not present in AccurateRip database
Copy OK

None of the tracks are present in the AccurateRip database

No errors occurred

End of status report

–– CUETools DB Plugin V2.1.6

[CTDB TOCID: Cvt2B7rpsRfEMVsgVasmqNhG5CE-] found
Submit result: Cvt2B7rpsRfEMVsgVasmqNhG5CE- has been confirmed
Track | CTDB Status
1 | (2/2) Accurately ripped
2 | (2/2) Accurately ripped
3 | (2/2) Accurately ripped
4 | (2/2) Accurately ripped
5 | (2/2) Accurately ripped
6 | (2/2) Accurately ripped
7 | (2/2) Accurately ripped
8 | (2/2) Accurately ripped
9 | (2/2) Accurately ripped
10 | (2/2) Accurately ripped
11 | (2/2) Accurately ripped
12 | (2/2) Accurately ripped
13 | (2/2) Accurately ripped
14 | (1/2) Accurately ripped
15 | (1/2) Accurately ripped
16 | (2/2) Accurately ripped
17 | (2/2) Accurately ripped
18 | (2/2) Accurately ripped
19 | (2/2) Accurately ripped
20 | (2/2) Accurately ripped
21 | (1/2) Accurately ripped
22 | (2/2) Accurately ripped

==== Log checksum 520AA4A6D1133B53E638B87EE4142467D6E2F2484E18D6DFCA70DC18839D3B63 ====

Soul-Junk - 1960 (2009) {Sound Familyre}

Soul-Junk – 1960 (2009) {Sound Familyre} Download, Warez, DDL, Free, Full Album, Torrent, Legal.

Download