Sopwith Camel – The Miraculous Hump Returns From The Moon (1973) [Reissue 2006] (Repost)

Download
Sopwith Camel - The Miraculous Hump Returns From The Moon (1973) [Reissue 2006] (Repost)

Sopwith Camel – The Miraculous Hump Returns From The Moon (1973) [Reissue 2006]
EAC Rip | FLAC (image+.cue+log) – 252 MB | MP3 CBR 320 kbps (LAME 3.93) – 109 MB | Covers (15 MB) included
Genre: Rock, Psychedelic Rock | RAR 3% Rec. | Label: Warner Bros. Records (CD 8600)

Some refer to The Miraculous Hump Returns from the Moon as the greatest album of all time! The story behind this LP, according to legend, is that when Hello Hello from Sopwith Camel’s debut lp was used for a TV commercial, the band became inspired to make a new record. They supposedly went to Hawaii, enjoyed the herbal splendors the island is known for, then returned to California to record The Miraculous Hump Returns from the Moon. The record does indeed sound like a band drifting through clouds, as the cover illustration suggests. The lead track, Fazon became a minor FM radio hit, (when FM radio was still underground). It sounds like Traffic’s Low Spark meets Steely Dan’s Dr. Woo meets Flying off of the Beatles Magical Mystery Tour. It’s breezy, cool, subversive fun. The record’s full of synthy saxophone grooves, a little sitar vibe, great vocals, and humorous lyrics.The whole album is a dreamy joy ride from start to finish.

Tracklist:
01. Fazon
02. Coke, Suede and Waterbeds
03. Dancin’ Wizard
04. Sleazy Street
05. Orange Peel
06. Oriental Fantasy
07. Sneaky Smith
08. Monkeys on the Moon
09. Astronaut Food
10. Brief Synthophonia

Total time: 39:48

EAC log
EAC extraction logfile from 20. July 2007, 12:00 for CD
Sopwith Camel / The Miraculous Hump Returns From The Moon (2006 Remastered Edition)

Used drive : BENQ DVD DD DW1620 Adapter: 0 ID: 2
Read mode : Secure with NO C2, accurate stream, disable cache
Read offset correction : 618
Overread into Lead-In and Lead-Out : No

Used output format : Internal WAV Routines
44.100 Hz; 16 Bit; Stereo

Other options :
Fill up missing offset samples with silence : Yes
Delete leading and trailing silent blocks : No
Installed external ASPI interface

Range status and errors
Selected range
Filename D:flogger77CDImage.wav

Peak level 95.7 %
Range quality 100.0 %
CRC D7438E3C
Copy OK

No errors occured

End of status report

CUETools log
[CUETools log; Date: 08.10.2017 23:52:35; Version: 2.1.4]
[CTDB TOCID: 0Z6IDa0mpw7A8QridEp2NKLyQnY-] found.
Track | CTDB Status
1 | (9/9) Accurately ripped
2 | (9/9) Accurately ripped
3 | (9/9) Accurately ripped
4 | (9/9) Accurately ripped
5 | (9/9) Accurately ripped
6 | (9/9) Accurately ripped
7 | (9/9) Accurately ripped
8 | (9/9) Accurately ripped
9 | (9/9) Accurately ripped
10 | (9/9) Accurately ripped
[AccurateRip ID: 00109097-00835ebe-7b09540a] found.
Track [ CRC | V2 ] Status
01 [e3fc65a6|16d324f9] (2+4/6) Accurately ripped
02 [a73c37a3|ea51fa66] (2+4/6) Accurately ripped
03 [7a188ecf|849bb42e] (2+4/6) Accurately ripped
04 [0ca48347|b49d96a3] (2+4/6) Accurately ripped
05 [16359a8b|6ae942ba] (2+4/6) Accurately ripped
06 [e51ca06e|59f80e5e] (2+4/6) Accurately ripped
07 [ab0cdae9|4dd3a826] (2+4/6) Accurately ripped
08 [696ce943|c712abd6] (2+4/6) Accurately ripped
09 [6a54695f|2b1a6b2c] (2+4/6) Accurately ripped
10 [b6a31928|130e572a] (2+4/6) Accurately ripped

Track Peak [ CRC32 ] [W/O NULL] [ LOG ]
– 95,7 [D7438E3C] [A7C7C1EF] CRC32
01 95,7 [1A381953] [B49FF692]
02 81,5 [ADB839C2] [60BE9589]
03 67,4 [C654C0F9] [8FA48A36]
04 88,2 [B2EAB366] [D0B35DBC]
05 81,9 [B882286A] [1BF665FA]
06 84,1 [21F8F219] [A7CB115B]
07 80,8 [D850E567] [9A1E0863]
08 81,1 [401DBCA4] [44221A9D]
09 90,9 [B7DB19E2] [78F7E819]
10 87,2 [43E24449] [C205079F]

Thanks to flogger77

Welcome to My Blog!

Sopwith Camel – The Miraculous Hump Returns From The Moon (1973) [Reissue 2006] (Repost) Download, Warez, DDL, Free, Full Album, Torrent, Legal.

Download