Sophie Pelletier – Les météores (2017)

Download
Sophie Pelletier - Les météores (2017)

Sophie Pelletier – Les météores
EAC Rip | FLAC (tracks)+cue, log, m3u, front cover | 39:46 min | 260 MB
Label: UniForce Productions Inc. – UPCD-1041 | Tracks: 12 | Rls.date: 2017
French Pop, Chanson

Sophie Pelletier lancera à la fin avril son 2e album solo. Il s’intitulera : Les météores. Le 21 avril prochain, l’artiste native de Rivière-Ouelle sera sur la scène de la Salle André-Gagnon de La Pocatière pour présenter un spectacle de lancement, accompagnée de quatre musiciens.

Les météores, c’est aussi le titre d’une des chansons phares de l’album, explique Sophie Pelletier que nous avons rencontrée le 12 mars dernier. C’est une chanson d’amour sur le thème du moment présent. « J’imaginais un couple sur une terrasse. Le temps s’arrête pour eux pendant que des météores passent derrière comme toutes ces belles choses qui viennent illuminer notre ciel », dit-elle.

L’album compte 12 chansons écrites et composées par Sophie Pelletier, à l’exception de Changer le cours dont Dumas signe les paroles et la musique. Gaële a collaboré aux textes, Fred St-Gelais, Marc Dupré, Patrick Bouchard, Sam Joly et Gautier Marinof aux musiques. Ce dernier signe la réalisation, les arrangements, la prise de son et le mixage. Marie-Pierre Arthur joue de la basse sur Tu te demandes.

« L’album me place comme une femme de trente ans dans le monde actuel. Il parle de moi, mais c’est aussi une prise de conscience sur la société », ajoute Sophie Pelletier. Des chansons sont plus sombres, d’autres plus gai. Le thème de l’amour est omniprésent, mais aussi ceux du rêve, des adieux, du pouvoir que l’on a de changer sa vie, de liberté… Le son est pop avec des sonorités rock, électro, et quelques influences de jazz, dit-elle.

Le lancement

Sophie lancera donc son album en spectacle à la Salle André-Gagnon le 21 avril, deux jours avant celui de Montréal au Lion d’or. On peut se procurer l’album en prévente sur iTunes et via le site internet de l’artiste (sophiepelletier.ca). Il sera disponible à compter du 28 avril.

Habituellement entourée de deux musiciens en spectacle, Sophie en aura quatre avec elle pour le spectacle de La Pocatière. « Sur scène, je prends plus de liberté. Je danse, je joue des percussions et du clavier (vacholder) », raconte Sophie Pelletier. Outre ses compositions, elle inclut des chansons d’artistes qui l’ont influencée.

Sophie Pelletier qui a travaillé très fort sur la production de son nouvel album a aussi écrit une pièce pour Johanne Lefebvre, candidate de l’émission La Voix. « J’aime ça écrire pour d’autres, ça me fait sortir de mes thèmes », dit-elle. Même si elle est auteure, compositrice et interprète, Sophie accepterait elle aussi d’interpréter des chansons d’autres auteurs, comme elle le fait d’ailleurs sur son nouvel opus avec la chanson de Dumas.

TRACKLIST
1. À l’envers (03:28)
2. Les météores (03:19)
3. L’île blanche (03:45)
4. Changer le cours (02:53)
5. Pas comme avant (03:45)
6. État sauvage (02:58)
7. Ton chéri (03:02)
8. Depuis elle pleure (02:49)
9. Tout ce qu’Il veut (03:14)
10. Tu te demandes (03:07)
11. Les âmes sœurs (04:02)
12. Resté là (03:24)

EAC Log
Exact Audio Copy V1.3 from 2. September 2016

EAC extraction logfile from 12. July 2017, 11:57

Sophie Pelletier / Les météores

Used drive : ATAPI DVD A DH16AAL Adapter: 1 ID: 0

Read mode : Secure
Utilize accurate stream : Yes
Defeat audio cache : Yes
Make use of C2 pointers : No

Read offset correction : 6
Overread into Lead-In and Lead-Out : No
Fill up missing offset samples with silence : Yes
Delete leading and trailing silent blocks : No
Null samples used in CRC calculations : Yes
Used interface : Native Win32 interface for Win NT & 2000
Gap handling : Appended to previous track

Used output format : User Defined Encoder
Selected bitrate : 1024 kBit/s
Quality : High
Add ID3 tag : No
Command line compressor : C:Program Files (x86)Exact Audio CopyFlacflac.exe
Additional command line options : -8 -e -p -V -T "ARTIST=%artist%" -T "TITLE=%title%" -T "ALBUM=%albumtitle%" -T "DATE=%year%" -T "TRACKNUMBER=%tracknr%" -T "GENRE=%genre%" -T "PERFORMER=%albuminterpret%" -T "COMPOSER=%composer%" %haslyrics%–tag-from-file=LYRICS="%lyricsfile%"%haslyrics% -T "ALBUMARTIST=%albumartist%" -T "DISCNUMBER=%cdnumber%" -T "TOTALDISCS=%totalcds%" -T "TOTALTRACKS=%numtracks%" -T "COMMENT=%comment%" %source% -o %dest%

TOC of the extracted CD

Track | Start | Length | Start sector | End sector
––––––––––––––––––––––––––––-
1 | 0:00.00 | 3:28.68 | 0 | 15667
2 | 3:28.68 | 3:19.43 | 15668 | 30635
3 | 6:48.36 | 3:45.21 | 30636 | 47531
4 | 10:33.57 | 2:53.29 | 47532 | 60535
5 | 13:27.11 | 3:45.47 | 60536 | 77457
6 | 17:12.58 | 2:58.72 | 77458 | 90879
7 | 20:11.55 | 3:02.29 | 90880 | 104558
8 | 23:14.09 | 2:49.72 | 104559 | 117305
9 | 26:04.06 | 3:14.40 | 117306 | 131895
10 | 29:18.46 | 3:07.56 | 131896 | 145976
11 | 32:26.27 | 4:02.16 | 145977 | 164142
12 | 36:28.43 | 3:24.71 | 164143 | 179513

Track 1

Filename C:ZelouEAC RipsSophie Pelletier – Les Météores (2017) [FLAC] {UPCD-1041}1 – À l’envers.wav

Pre-gap length 0:00:02.00

Peak level 98.8 %
Extraction speed 1.7 X
Track quality 100.0 %
Test CRC 6CC7C9BF
Copy CRC 6CC7C9BF
Track not present in AccurateRip database
Copy OK

Track 2

Filename C:ZelouEAC RipsSophie Pelletier – Les Météores (2017) [FLAC] {UPCD-1041}2 – Les météores.wav

Peak level 98.8 %
Extraction speed 1.9 X
Track quality 100.0 %
Test CRC 03F22D7C
Copy CRC 03F22D7C
Track not present in AccurateRip database
Copy OK

Track 3

Filename C:ZelouEAC RipsSophie Pelletier – Les Météores (2017) [FLAC] {UPCD-1041}3 – L’île blanche.wav

Peak level 98.7 %
Extraction speed 2.1 X
Track quality 100.0 %
Test CRC 09EF602D
Copy CRC 09EF602D
Track not present in AccurateRip database
Copy OK

Track 4

Filename C:ZelouEAC RipsSophie Pelletier – Les Météores (2017) [FLAC] {UPCD-1041}4 – Changer le cours.wav

Peak level 98.8 %
Extraction speed 2.1 X
Track quality 100.0 %
Test CRC 05CF2DE5
Copy CRC 05CF2DE5
Track not present in AccurateRip database
Copy OK

Track 5

Filename C:ZelouEAC RipsSophie Pelletier – Les Météores (2017) [FLAC] {UPCD-1041}5 – Pas comme avant.wav

Peak level 98.8 %
Extraction speed 2.4 X
Track quality 100.0 %
Test CRC 12247CC0
Copy CRC 12247CC0
Track not present in AccurateRip database
Copy OK

Track 6

Filename C:ZelouEAC RipsSophie Pelletier – Les Météores (2017) [FLAC] {UPCD-1041}6 – État sauvage.wav

Peak level 98.8 %
Extraction speed 1.6 X
Track quality 99.9 %
Test CRC 9749BF44
Copy CRC 9749BF44
Track not present in AccurateRip database
Copy OK

Track 7

Filename C:ZelouEAC RipsSophie Pelletier – Les Météores (2017) [FLAC] {UPCD-1041}7 – Ton chéri.wav

Peak level 98.8 %
Extraction speed 2.5 X
Track quality 100.0 %
Test CRC 1DFD35AA
Copy CRC 1DFD35AA
Track not present in AccurateRip database
Copy OK

Track 8

Filename C:ZelouEAC RipsSophie Pelletier – Les Météores (2017) [FLAC] {UPCD-1041}8 – Depuis elle pleure.wav

Peak level 98.8 %
Extraction speed 1.7 X
Track quality 99.9 %
Test CRC 3AB3E783
Copy CRC 3AB3E783
Track not present in AccurateRip database
Copy OK

Track 9

Filename C:ZelouEAC RipsSophie Pelletier – Les Météores (2017) [FLAC] {UPCD-1041}9 – Tout ce qu’il veut.wav

Peak level 98.8 %
Extraction speed 1.9 X
Track quality 99.9 %
Test CRC 867BBD63
Copy CRC 867BBD63
Track not present in AccurateRip database
Copy OK

Track 10

Filename C:ZelouEAC RipsSophie Pelletier – Les Météores (2017) [FLAC] {UPCD-1041}10 – Tu te demandes.wav

Peak level 98.7 %
Extraction speed 2.8 X
Track quality 100.0 %
Test CRC F6D482DC
Copy CRC F6D482DC
Track not present in AccurateRip database
Copy OK

Track 11

Filename C:ZelouEAC RipsSophie Pelletier – Les Météores (2017) [FLAC] {UPCD-1041}11 – Les âmes soeurs.wav

Peak level 98.7 %
Extraction speed 3.0 X
Track quality 100.0 %
Test CRC 75FC75AC
Copy CRC 75FC75AC
Track not present in AccurateRip database
Copy OK

Track 12

Filename C:ZelouEAC RipsSophie Pelletier – Les Météores (2017) [FLAC] {UPCD-1041}12 – Resté là.wav

Peak level 98.8 %
Extraction speed 3.1 X
Track quality 100.0 %
Test CRC CEE86FB6
Copy CRC CEE86FB6
Track not present in AccurateRip database
Copy OK

None of the tracks are present in the AccurateRip database

No errors occurred

End of status report

–– CUETools DB Plugin V2.1.6

[CTDB TOCID: QsuH1PotDb5ROGTEHNZ_gIgUoPs-] found
Submit result: already submitted
Track | CTDB Status
1 | (2/2) Accurately ripped
2 | (2/2) Accurately ripped
3 | (2/2) Accurately ripped
4 | (2/2) Accurately ripped
5 | (2/2) Accurately ripped
6 | (2/2) Accurately ripped
7 | (2/2) Accurately ripped
8 | (2/2) Accurately ripped
9 | (2/2) Accurately ripped
10 | (2/2) Accurately ripped
11 | (2/2) Accurately ripped
12 | (2/2) Accurately ripped

==== Log checksum A21CAC3B18FBE8162CFF92D2AA7753589AB2E69050C7D7C03A702B3FD94983B4 ====

Thanks to the Original customer.

Sophie Pelletier – Les météores (2017) Download, Warez, DDL, Free, Full Album, Torrent, Legal.

Download