Sonny Rollins – East Broadway Run Down (1966) {1995 Impulse}

Download
Sonny Rollins - East Broadway Run Down (1966) {1995 Impulse}

Sonny Rollins – East Broadway Run Down (1966) {1995 Impulse}
EAC Rip | FLAC with CUE and log | scans | 275 mb
MP3 CBR 320kbps | RAR | 124 mb
Genre: jazz

East Broadway Run Down is a 1966 album by American saxophonist Sonny Rollins. This is from a remaster released in 1995 by Impulse.

Sonny Rollins - East Broadway Run Down (1966) {1995 Impulse}

1. East Broadway Run Down (20:24)
2. Blessing In Disguise (12:21)
3. We Kiss In A Shadow (5:36)

Sonny Rollins-tenor sax
Freddie Hubbard-trumpet (track 1)
Jimmy Garrison-bass
Elvin Jones-drums

Original sessions produced by Bob Thiele
Reissue produced by Michael Cuscuna
Recorded on 9 May, 1966 at the Van Gelder Studio, Englewood Cliffs, NJ
Recording engineer: Rudy Van Gelder
Digitally remastered by Erick Labson at MCA Music Media Studios using 20-Bit Super Mapping

Sonny Rollins - East Broadway Run Down (1966) {1995 Impulse}
EAC Log
EAC extraction logfile from 25. June 2017, 7:53 for CD
Sonny Rollins / East Broadway Run Down

Used drive : TSSTcorpDVD+-RW TS-H653B Adapter: 2 ID: 0
Read mode : Secure with NO C2, accurate stream, disable cache
Read offset correction : 6
Overread into Lead-In and Lead-Out : No

Used output format : Internal WAV Routines
44.100 Hz; 16 Bit; Stereo

Other options :
Fill up missing offset samples with silence : Yes
Delete leading and trailing silent blocks : No
Native Win32 interface for Win NT & 2000

Track 1
Filename C:Documents and SettingsDesktopFLAC’s6Sonny Rollins – East Broadway Run Down (1966) [FLAC] {1995 Impulse}1 – East Broadway Run Down.wav

Pre-gap length 0:00:02.00

Peak level 100.0 %
Track quality 100.0 %
Test CRC D14AF006
Copy CRC D14AF006
Copy OK

Track 2
Filename C:Documents and SettingsDesktopFLAC’s6Sonny Rollins – East Broadway Run Down (1966) [FLAC] {1995 Impulse}2 – Blessing In Disguise.wav

Pre-gap length 0:00:01.04

Peak level 100.0 %
Track quality 100.0 %
Test CRC 11E81862
Copy CRC 11E81862
Copy OK

Track 3
Filename C:Documents and SettingsDesktopFLAC’s6Sonny Rollins – East Broadway Run Down (1966) [FLAC] {1995 Impulse}3 – We Kiss In A Shadow.wav

Pre-gap length 0:00:01.40

Peak level 100.0 %
Track quality 100.0 %
Test CRC A0CB56F4
Copy CRC A0CB56F4
Copy OK

No errors occured

End of status report

Sonny Rollins - East Broadway Run Down (1966) {1995 Impulse}

Sonny Rollins – East Broadway Run Down (1966) {1995 Impulse} Download, Warez, DDL, Free, Full Album, Torrent, Legal.

Download