Sonic Youth – Goo (1991) {laserdisc rip}

Download
Sonic Youth - Goo (1991) {laserdisc rip}

Sonic Youth – Goo (1991) {laserdisc rip}
Laserdisc rip | AVI: Advanced Simple@L5 (512 x 384, 1888 Kbps) | Audio: MP3 (192 Kbps: VBR) | 53 min | English | 796 mb
Genre: alternative

Goo is a 1991 major label debut album by New York alterna- rockers Sonic Youth. They made music videos for each song on the album and compiled it for release, some of them ("Dirty Boots", "Kool Thing") done with finances from their record label (DGC/Geffen), others done independently, with one or two done by themselves. While these videos have been formally released as part of a compilation DVD, this is taken from the high quality laserdisc.

Sonic Youth - Goo (1991) {laserdisc rip}

1. Dirty Boots (5:24)
2. Tunic (Song For Karen) (6:17)
3. Mary-Christ (3:08)
4. Kool Thing (4:04)
5. Mote (7:36)
6. My Friend Goo (2:18)
7. Disappearer (5:08)
8. Mildred Pierce (2:12)
9. Cinderella’s Big Score (5:50)
10. Scooter + Jinx (1:00)
11. Titanium Exposé (6:26)

MediaInfo (LOG)
General
Complete name : F:FLACAAA 2017VidsSonic Youth – Goo (laserdisc rip)Sonic Youth – Goo.avi
Format : AVI
Format/Info : Audio Video Interleave
File size : 799 MiB
Duration : 53mn 25s
Overall bit rate mode : Variable
Overall bit rate : 2 091 Kbps
Writing application : VirtualDubMod 1.5.4.1 (build 2178/release)
Writing library : VirtualDubMod build 2178/release

Video
ID : 0
Format : MPEG-4 Visual
Format profile : Advanced Simple@L5
Format settings, BVOP : 1
Format settings, QPel : No
Format settings, GMC : No warppoints
Format settings, Matrix : Custom
Codec ID : XVID
Codec ID/Hint : XviD
Duration : 53mn 25s
Bit rate : 1 888 Kbps
Width : 512 pixels
Height : 384 pixels
Display aspect ratio : 4:3
Frame rate : 29.970 fps
Color space : YUV
Chroma subsampling : 4:2:0
Bit depth : 8 bits
Scan type : Progressive
Compression mode : Lossy
Bits/(Pixel*Frame) : 0.320
Stream size : 721 MiB (90%)
Writing library : XviD 1.0.3 (UTC 2004-12-20)

Audio
ID : 1
Format : MPEG Audio
Format version : Version 1
Format profile : Layer 3
Mode : Joint stereo
Mode extension : MS Stereo
Codec ID : 55
Codec ID/Hint : MP3
Duration : 53mn 25s
Bit rate mode : Variable
Bit rate : 192 Kbps
Channel(s) : 2 channels
Sampling rate : 48.0 KHz
Compression mode : Lossy
Stream size : 72.4 MiB (9%)
Alignment : Aligned on interleaves
Interleave, duration : 24 ms (0.72 video frame)
Interleave, preload duration : 508 ms

Sonic Youth - Goo (1991) {laserdisc rip}

Sonic Youth – Goo (1991) {laserdisc rip} Download, Warez, DDL, Free, Full Album, Torrent, Legal.

Download