Songhoy Blues – Résistance (2017)

Download
Songhoy Blues - Résistance (2017)

Songhoy Blues – Résistance
EAC Rip | FLAC (tracks)+cue, log, m3u, front cover | 45:17 min | 292 MB
Label: Fat Possum Records – FP1639-2 | Tracks: 12 | Rls.date: 2017
Blues, World

Songhoy Blues release their new album, Resistance is a bold, inspiring, outward-looking record that perfectly reflects the position the band have found themselves in following the massive success of their breakthrough debut, Music In Exile, released in 2015. The album was recorded in the autumn of 2016 at The Pool studio in London with producer Neil Comber (MIA, Django Django, Crystal Fighters, Declan McKenna) and in keeping with their spirit of collaboration which saw them previously work with Nick Zinner, Julian Casablancas and Damon Albarn, Resistance features additional synths by Lxury and vocal contributions from the likes of Iggy Pop, Elf Kid and Stealing Sheep. Beyond this, the album features beautiful string parts (Hometown) and in one particularly surprising, moving instance (One Colour), a children’s choir.

TRACKLIST
1. Voter (03:19)
2. Bamako (03:40)
3. Sahara (feat. Iggy Pop) (03:03)
4. Yersi Yadda (03:50)
5. Hometown (05:00)
6. Badji (04:01)
7. Dabari (03:07)
8. Ici Bas (03:47)
9. Ir Ma Sobay (03:16)
10. Mali Nord (feat. Elf Kid) (03:59)
11. Alhakou (03:55)
12. One Colour (04:02)

EAC Log
Exact Audio Copy V1.0 beta 4 from 7. December 2014

EAC extraction logfile from 24. July 2017, 11:22

Songhoy Blues / Résistance

Used drive : PIONEER DVD-RW DVR-116D Adapter: 1 ID: 0

Read mode : Secure
Utilize accurate stream : Yes
Defeat audio cache : Yes
Make use of C2 pointers : No

Read offset correction : 96
Overread into Lead-In and Lead-Out : No
Fill up missing offset samples with silence : Yes
Delete leading and trailing silent blocks : No
Null samples used in CRC calculations : Yes
Used interface : Native Win32 interface for Win NT & 2000
Gap handling : Appended to previous track

Used output format : User Defined Encoder
Selected bitrate : 1024 kBit/s
Quality : High
Add ID3 tag : No
Command line compressor : C:Program Files (x86)Exact Audio CopyFlacflac.exe
Additional command line options : -8 -V -T "ARTIST=%artist%" -T "TITLE=%title%" -T "ALBUM=%albumtitle%" -T "DATE=%year%" -T "TRACKNUMBER=%tracknr%" -T "GENRE=%genre%" -T "PERFORMER=%albuminterpret%" -T "COMPOSER=%composer%" %haslyrics%–tag-from-file=LYRICS="%lyricsfile%"%haslyrics% -T "ALBUMARTIST=%albumartist%" -T "DISCNUMBER=%cdnumber%" -T "TOTALDISCS=%totalcds%" -T "TOTALTRACKS=%numtracks%" -T "COMMENT=%comment%" %source% -o %dest%

TOC of the extracted CD

Track | Start | Length | Start sector | End sector
––––––––––––––––––––––––––––-
1 | 0:00.00 | 3:19.39 | 0 | 14963
2 | 3:19.39 | 3:40.10 | 14964 | 31473
3 | 6:59.49 | 3:03.54 | 31474 | 45252
4 | 10:03.28 | 3:50.59 | 45253 | 62561
5 | 13:54.12 | 5:00.02 | 62562 | 85063
6 | 18:54.14 | 4:01.54 | 85064 | 103192
7 | 22:55.68 | 3:07.55 | 103193 | 117272
8 | 26:03.48 | 3:47.41 | 117273 | 134338
9 | 29:51.14 | 3:16.12 | 134339 | 149050
10 | 33:07.26 | 3:59.34 | 149051 | 167009
11 | 37:06.60 | 3:55.68 | 167010 | 184702
12 | 41:02.53 | 4:02.21 | 184703 | 202873

Track 1

Filename C:new flac ripsSonghoy Blues – 2017 – Résistance1 Voter.wav

Pre-gap length 0:00:02.00

Peak level 97.9 %
Extraction speed 3.5 X
Track quality 99.9 %
Test CRC FE2F1B63
Copy CRC FE2F1B63
Accurately ripped (confidence 1) [BA6E6671] (AR v2)
Copy OK

Track 2

Filename C:new flac ripsSonghoy Blues – 2017 – Résistance2 Bamako.wav

Pre-gap length 0:00:01.74

Peak level 97.8 %
Extraction speed 4.4 X
Track quality 100.0 %
Test CRC 1AEFCC23
Copy CRC 1AEFCC23
Accurately ripped (confidence 1) [EBC277AC] (AR v2)
Copy OK

Track 3

Filename C:new flac ripsSonghoy Blues – 2017 – Résistance3 Sahara (feat. Iggy Pop).wav

Peak level 99.4 %
Extraction speed 4.7 X
Track quality 100.0 %
Test CRC 8D003210
Copy CRC 8D003210
Accurately ripped (confidence 1) [5A5FA66F] (AR v2)
Copy OK

Track 4

Filename C:new flac ripsSonghoy Blues – 2017 – Résistance4 Yersi Yadda.wav

Pre-gap length 0:00:01.50

Peak level 97.8 %
Extraction speed 5.1 X
Track quality 100.0 %
Test CRC FF26C92B
Copy CRC FF26C92B
Accurately ripped (confidence 1) [A0B5EC54] (AR v2)
Copy OK

Track 5

Filename C:new flac ripsSonghoy Blues – 2017 – Résistance5 Hometown.wav

Pre-gap length 0:00:01.08

Peak level 98.4 %
Extraction speed 5.6 X
Track quality 100.0 %
Test CRC 6A045010
Copy CRC 6A045010
Accurately ripped (confidence 1) [01612DC7] (AR v2)
Copy OK

Track 6

Filename C:new flac ripsSonghoy Blues – 2017 – Résistance6 Badji.wav

Peak level 97.8 %
Extraction speed 5.7 X
Track quality 100.0 %
Test CRC C3BCD95A
Copy CRC C3BCD95A
Accurately ripped (confidence 1) [70E5AFC0] (AR v2)
Copy OK

Track 7

Filename C:new flac ripsSonghoy Blues – 2017 – Résistance7 Dabari.wav

Peak level 97.8 %
Extraction speed 5.9 X
Track quality 100.0 %
Test CRC DA0678F5
Copy CRC DA0678F5
Accurately ripped (confidence 1) [A8BCB25E] (AR v2)
Copy OK

Track 8

Filename C:new flac ripsSonghoy Blues – 2017 – Résistance8 Ici Bas.wav

Peak level 97.9 %
Extraction speed 6.2 X
Track quality 100.0 %
Test CRC AEFA2E65
Copy CRC AEFA2E65
Accurately ripped (confidence 1) [41D6EB60] (AR v2)
Copy OK

Track 9

Filename C:new flac ripsSonghoy Blues – 2017 – Résistance9 Ir Ma Sobay.wav

Pre-gap length 0:00:01.15

Peak level 97.8 %
Extraction speed 6.4 X
Track quality 100.0 %
Test CRC C57B452E
Copy CRC C57B452E
Accurately ripped (confidence 1) [841F72DF] (AR v2)
Copy OK

Track 10

Filename C:new flac ripsSonghoy Blues – 2017 – Résistance10 Mali Nord.wav

Pre-gap length 0:00:01.09

Peak level 100.0 %
Extraction speed 6.7 X
Track quality 100.0 %
Test CRC D5086197
Copy CRC D5086197
Accurately ripped (confidence 1) [42C2E6CA] (AR v2)
Copy OK

Track 11

Filename C:new flac ripsSonghoy Blues – 2017 – Résistance11 Alhakou.wav

Pre-gap length 0:00:01.12

Peak level 97.8 %
Extraction speed 6.9 X
Track quality 100.0 %
Test CRC 3BA636DD
Copy CRC 3BA636DD
Accurately ripped (confidence 1) [0C4D6B09] (AR v2)
Copy OK

Track 12

Filename C:new flac ripsSonghoy Blues – 2017 – Résistance12 One Colour.wav

Pre-gap length 0:00:01.34

Peak level 98.0 %
Extraction speed 7.1 X
Track quality 100.0 %
Test CRC 3C31DC4A
Copy CRC 3C31DC4A
Accurately ripped (confidence 2) [771A0AEE] (AR v2)
Copy OK

All tracks accurately ripped

No errors occurred

End of status report

–– CUETools DB Plugin V2.1.4

[CTDB TOCID: eEglpwq6jFrvsxj70P0LAxWDopc-] found
Submit result: eEglpwq6jFrvsxj70P0LAxWDopc- has been confirmed
Track | CTDB Status
1 | (13/13) Accurately ripped
2 | (13/13) Accurately ripped
3 | (13/13) Accurately ripped
4 | (13/13) Accurately ripped
5 | (13/13) Accurately ripped
6 | (13/13) Accurately ripped
7 | (13/13) Accurately ripped
8 | (13/13) Accurately ripped
9 | (13/13) Accurately ripped
10 | (13/13) Accurately ripped
11 | (13/13) Accurately ripped
12 | (13/13) Accurately ripped

==== Log checksum 30C19DC22390C933557CE4CEFDEE819BA3246A13BA5E19F7C9A23760FE94733C ====

Thanks to the Original customer.

Songhoy Blues – Résistance (2017) Download, Warez, DDL, Free, Full Album, Torrent, Legal.

Download