Solomon Burke – Don't Give Up On Me (2002)

Download
Solomon Burke - Don't Give Up On Me (2002)

Solomon Burke – Don’t Give Up On Me (2002)
EAC | FLAC | Image (Cue&Log) ~ 291 Mb | Mp3 (CBR320) ~ 132 Mb | Scans included | 00:51:40
Soul, Deep Soul, Soul-Blues, Gospel | Label: Fat Possum, Anti- | # 0358-2

Don’t Give Up on Me is a studio album by R&B/Soul singer Solomon Burke, recorded and released in 2002 on Fat Possum Records. The album won the Grammy Award for Best Contemporary Blues Album. It is noteworthy for the contributions of original and previously unreleased compositions by top-rank songwriters, the effect of which placed Burke back in the public eye for a time. Guest stars are Daniel Lanois, who plays electric guitar on "Stepchild", and The Blind Boys of Alabama, who feature on backing vocals for "None of Us Are Free".

It’s a sad irony that in the 1980s and ’90s, many of the great artists of soul and R&B suffered musically at the hands of those who professed to love them the most. After soul had dropped off the major-label radar in favor of hip-hop and new jack sounds, a number of smaller companies stepped forward to record veteran artists who were still giving their all on the road, but for every truly inspired release from labels such as Malaco, Bullseye, or Alligator, there were a dozen others which featured rote, generic production and arrangements which attempted to recapture the thrilling sound of soul’s glory days without coming within driving distance of conjuring their ineffable magic. Solomon Burke was one of the greatest talents of ’60s soul, whose strong, burnished voice resonated with a churchy fervor that could speak volumes about either triumph or hurt, but while he continued to record regularly through the ’70s, ’80s and ’90s and always sounded splendid, the records themselves often weren’t much to write home about, with Burke using his gifts to prop up second-rate material or re-record tunes he’d performed definitively in the past. So it’s good news indeed to report that Burke’s new album, Don’t Give Up on Me, is nothing short of revelatory, a superb set which presents "the King of Rock and Soul" at the very top of his form. Singer and songwriter Joe Henry produced the set, and rather than trying to replicate the sound of a vintage Jerry Wexler session, he’s taken a very different approach, going for a spare and open sound, with nothing but a subdued rhythm section, a guitar, and an organ (the latter played by Rudy Copeland, who performs the same honors at the church where Burke preaches) accompanying Burke on most of these 11 songs. Henry also put out a call for material worthy of Burke’s gifts, and a number of his better-known fans responded, including Bob Dylan, Tom Waits, Van Morrison, Elvis Costello, Brian Wilson, and Nick Lowe, all of whom contributed songs to the project. But for all the songwriting starpower on deck, the focus is squarely on Solomon Burke throughout, and he proves he’s lost none of the power, force, or dramatic intensity of his glory days. Henry’s low-key production captures the nooks and crannies of Burke’s voice, and he delivers a performance worthy of a great actor on each cut, from the deep soul of "Don’t Give Up on Me" and the blues-based swagger of "Stepchild" to the inspired tall tales of "Diamond in Your Mind" and the near-operatic passion of "The Judgement." His voice is in superb shape, too, sounding no less powerful at age 66 than he did in his glory days, and with a depth of emotion and gift for phrasing that’s only grown with the passage of time. In many ways, Don’t Give Up on Me most closely resembles Johnny Cash’s superb American Recordings, in that the spare simplicity of the album’s presentation reveals the rich complexities of the singer’s gifts as they’ve rarely been allowed in the past; while it’s a very different kettle of fish from his classic sides for Atlantic in the 1960s, Don’t Give up on Me leaves no doubt that Solomon Burke is still one of the finest voices of his time, and anyone who has ever been moved by the power of soul music needs to hear this album.

Review by Mark Deming, Allmusic.com

Solomon Burke took seriously his role as the King of Rock’n’Soul (as he was rather inelegantly christened during his tenure with Atlantic in the 1960s), invariably taking the stage with crown and sceptre. He is now the father of 21, resident in Los Angeles and significantly wider of girth; but the glorious voice is still a thing of soul-baring wonder. Madonna’s brother-in-law Joe Henry produces a set that re-creates the slow-burning southern soul sound of the era ruled by Burke and Percy Sledge. Wisely, Henry has recruited a stellar list of songwriters, from Bob Dylan and Van Morrison to Tom Waits and Brian Wilson, who contribute new songs for the old stager. Waits’s jagged Diamond in Your Mind delightfully takes Burke into the uncharted territory of irony, but elsewhere the songs pay homage to the voice. Burke sounds as if he is having a ball; when the Blind Boys of Alabama join him on None of Us Are Free, the results are genuinely spiritual.

Review by John Aizlewood, The Guardian

Solomon Burke - Don't Give Up On Me (2002)

Solomon Burke at Allmusic
Solomon Burke at Wiki

Tracklist:

01. Don’t Give Up On Me (3:46)
02. Fast Train (5:43)
03. Diamond In Your Mind (4:25)
04. Flesh And Blood (6:07)
05. Soul Searchin’ (3:59)
06. Only A Dream (5:09)
07. The Judgement (3:31)
08. Stepchild (5:10)
09. The Other Side Of The Coin (3:47)
10. None Of Us Are Free (5:29)
11. Sit This One Out (4:34)

EAC log
Exact Audio Copy V0.99 prebeta 4 from 23. January 2008

Отчёт EAC об извлечении, выполненном 20. июля 2009, 13:55

Solomon Burke / Don’t Give Up On Me

Дисковод: Optiarc DVD RW AD-7203S Adapter: 1 ID: 1

Режим чтения : Достоверность
Использование точного потока : Да
Отключение кэша аудио : Да
Использование указателей C2 : Нет

Коррекция смещения при чтении : 48
Способность читать области Lead-in и Lead-out : Нет
Заполнение пропущенных сэмплов тишиной : Да
Удаление блоков с тишиной в начале и конце : Нет
При вычислениях CRC использовались нулевые сэмплы : Да
Интерфейс : Встроенный Win32-интерфейс для Win NT/2000

Выходной формат : Пользовательский кодировщик
Выбранный битрейт : 1024 kBit/s
Качество : Высокий
Добавление ID3-тэга : Нет
Утилита сжатия : C:Program FilesExact Audio CopyFlacflac.exe
Дополнительные параметры : -V -8 -T "artist=%a" -T "title=%t" -T "album=%g" -T "date=%y" -T "tracknumber=%n" -T "genre=%m" %s

TOC извлечённого CD

Трек | Старт | Длительность | Начальный сектор | Конечный сектор
––––––––––––––––––––––––––––––––––-
1 | 0:00.00 | 3:45.40 | 0 | 16914
2 | 3:45.40 | 5:43.36 | 16915 | 42675
3 | 9:29.01 | 4:24.70 | 42676 | 62545
4 | 13:53.71 | 6:07.01 | 62546 | 90071
5 | 20:00.72 | 3:59.35 | 90072 | 108031
6 | 24:00.32 | 5:09.17 | 108032 | 131223
7 | 29:09.49 | 3:30.48 | 131224 | 147021
8 | 32:40.22 | 5:10.13 | 147022 | 170284
9 | 37:50.35 | 3:46.62 | 170285 | 187296
10 | 41:37.22 | 5:29.29 | 187297 | 212000
11 | 47:06.51 | 4:33.38 | 212001 | 232513

Характеристики диапазона извлечения и сообщения об ошибках

Выбранный диапазон

Имя файла D:EAC-FOLDER2002-Solomon Burke — Don’t Give Up On Me2002-Solomon Burke — Don’t Give Up On MeSolomon Burke – Don’t Give Up On Me.wav

Пиковый уровень 100.0 %
Качество диапазона 100.0 %
CRC теста C2010D26
CRC копии C2010D26
Копирование… OK

Ошибок не произошло

AccurateRip: сводка

Трек 1 точное извлечение (доверие 51) [93AD34B6]
Трек 2 точное извлечение (доверие 51) [31E0820F]
Трек 3 точное извлечение (доверие 51) [7C1F2B12]
Трек 4 точное извлечение (доверие 51) [8776C970]
Трек 5 точное извлечение (доверие 50) [3CE0D2D9]
Трек 6 точное извлечение (доверие 50) [9B853FA9]
Трек 7 точное извлечение (доверие 51) [14FE5DE2]
Трек 8 точное извлечение (доверие 51) [CAD7ADA1]
Трек 9 точное извлечение (доверие 51) [15557303]
Трек 10 точное извлечение (доверие 50) [6D90EE49]
Трек 11 точное извлечение (доверие 50) [F397A760]

Все треки извлечены точно

Конец отчёта

AR log
[CUETools log; Date: 10.07.2017 6:12:00; Version: 2.1.4]
[CTDB TOCID: NEBYc.lvzn.TVO5oJHqqb6e32k0-] found.
Track | CTDB Status
1 | (297/301) Accurately ripped
2 | (297/301) Accurately ripped
3 | (298/301) Accurately ripped
4 | (299/301) Accurately ripped
5 | (297/301) Accurately ripped
6 | (296/301) Accurately ripped
7 | (298/301) Accurately ripped
8 | (296/301) Accurately ripped
9 | (298/301) Accurately ripped
10 | (294/301) Accurately ripped
11 | (296/301) Accurately ripped
[AccurateRip ID: 00155f08-00b922bd-930c1c0b] found.
Track [ CRC | V2 ] Status
01 [93ad34b6|d0d67ef8] (136+176/475) Accurately ripped
02 [31e0820f|398c0af2] (136+176/474) Accurately ripped
03 [7c1f2b12|173e9f4d] (136+177/478) Accurately ripped
04 [8776c970|22f4e0c8] (133+178/472) Accurately ripped
05 [3ce0d2d9|53dfd42d] (133+177/470) Accurately ripped
06 [9b853fa9|03b16048] (132+176/468) Accurately ripped
07 [14fe5de2|dc601230] (134+176/475) Accurately ripped
08 [cad7ada1|06fae5f1] (134+177/473) Accurately ripped
09 [15557303|bda0958d] (133+175/470) Accurately ripped
10 [6d90ee49|9a2b4f2f] (133+175/472) Accurately ripped
11 [f397a760|2031b459] (132+175/462) Accurately ripped
Offsetted by -706:
01 [97722ebb] (004/475) Accurately ripped
02 [b777e4e4] (004/474) Accurately ripped
03 [f0ce0538] (004/478) Accurately ripped
04 [58949ccf] (004/472) Accurately ripped
05 [406375e0] (004/470) Accurately ripped
06 [25c23d47] (004/468) Accurately ripped
07 [2217b334] (004/475) Accurately ripped
08 [ed258a31] (004/473) Accurately ripped
09 [1ba9a90b] (004/470) Accurately ripped
10 [872cb6b5] (004/472) Accurately ripped
11 [83051c96] (004/462) Accurately ripped
Offsetted by -635:
01 [36ac1e0f] (028/475) Accurately ripped
02 [65642751] (026/474) Accurately ripped
03 [02142fd3] (028/478) Accurately ripped
04 [0e59ad54] (027/472) Accurately ripped
05 [96ece612] (027/470) Accurately ripped
06 [f33bbe3e] (028/468) Accurately ripped
07 [79f9f4f5] (028/475) Accurately ripped
08 [ef22c939] (027/473) Accurately ripped
09 [6f26a16f] (027/470) Accurately ripped
10 [2fbfdb7b] (025/472) Accurately ripped
11 [a645e379] (025/462) Accurately ripped
Offsetted by -625:
01 [f362ca28] (052/475) Accurately ripped
02 [17a82532] (053/474) Accurately ripped
03 [d5a37a55] (053/478) Accurately ripped
04 [d882310a] (053/472) Accurately ripped
05 [155526be] (053/470) Accurately ripped
06 [ddb1d068] (053/468) Accurately ripped
07 [2fd1b61b] (056/475) Accurately ripped
08 [f6a09869] (055/473) Accurately ripped
09 [a62d6a47] (054/470) Accurately ripped
10 [e623e7df] (053/472) Accurately ripped
11 [fe2af4ab] (048/462) Accurately ripped
Offsetted by -6:
01 [bcf52885] (002/475) Accurately ripped
02 [6470502a] (002/474) Accurately ripped
03 [c9fc64c4] (002/478) Accurately ripped
04 [e3c22b6c] (002/472) Accurately ripped
05 [bcb72317] (002/470) Accurately ripped
06 [420b34c3] (002/468) Accurately ripped
07 [db168398] (002/475) Accurately ripped
08 [f98c3151] (002/473) Accurately ripped
09 [2784941b] (002/470) Accurately ripped
10 [66881a0d] (002/472) Accurately ripped
11 [8ba7d042] (003/462) Accurately ripped
Offsetted by 18:
01 [48559a55] (002/475) Accurately ripped
02 [acd71be6] (002/474) Accurately ripped
03 [92877dfc] (002/478) Accurately ripped
04 [a9e5fab5] (002/472) Accurately ripped
05 [ad6ff046] (002/470) Accurately ripped
06 [a7f3605b] (002/468) Accurately ripped
07 [c2b5ecc0] (002/475) Accurately ripped
08 [3eba2291] (002/473) Accurately ripped
09 [dec80fbb] (002/470) Accurately ripped
10 [82ab6afd] (002/472) Accurately ripped
11 [2b672cba] (002/462) Accurately ripped
Offsetted by -664:
01 [2ae2acac] (000/475) No match
02 [cdca91fd] (000/474) No match
03 [cfc1715a] (000/478) No match
04 [adc55a8d] (000/472) No match
05 [5e61d3f4] (000/470) No match
06 [98188991] (000/468) No match
07 [b76eab3a] (000/475) No match
08 [a635f061] (000/473) No match
09 [9c5fc163] (000/470) No match
10 [b86a8459] (000/472) No match
11 [5a93fe68] (000/462) No match (V2 was not tested)
Offsetted by -658:
01 [00589f95] (002/475) Accurately ripped
02 [68cdc2c2] (002/474) Accurately ripped
03 [81e437a8] (002/478) Accurately ripped
04 [4e97cde6] (000/472) No match (V2 was not tested)
05 [2783d729] (000/470) No match (V2 was not tested)
06 [f1929477] (000/468) No match (V2 was not tested)
07 [f1568584] (000/475) No match (V2 was not tested)
08 [77816cb1] (000/473) No match (V2 was not tested)
09 [8a30a04b] (000/470) No match (V2 was not tested)
10 [bf735895] (000/472) No match (V2 was not tested)
11 [c283d586] (000/462) No match (V2 was not tested)
Offsetted by -66:
01 [31bbaa3e] (000/475) No match (V2 was not tested)
02 [f16db825] (000/474) No match (V2 was not tested)
03 [d4a0a5b8] (000/478) No match (V2 was not tested)
04 [63f3bc89] (000/472) No match (V2 was not tested)
05 [3c64b98e] (000/470) No match
06 [c346c7c7] (000/468) No match
07 [9807fcb4] (000/475) No match
08 [cc995631] (000/473) No match
09 [dd5bdf0b] (000/470) No match
10 [202fcfb5] (000/472) No match
11 [7c496916] (000/462) No match
Offsetted by -30:
01 [a9f56f5a] (000/475) No match (V2 was not tested)
02 [4d8ea2d1] (000/474) No match (V2 was not tested)
03 [01714b8c] (000/478) No match (V2 was not tested)
04 [d6002e42] (000/472) No match (V2 was not tested)
05 [a1837b91] (000/470) No match (V2 was not tested)
06 [dc23092b] (000/468) No match (V2 was not tested)
07 [f3771a70] (000/475) No match (V2 was not tested)
08 [b45e4011] (000/473) No match (V2 was not tested)
09 [7041187b] (000/470) No match (V2 was not tested)
10 [4a64c91d] (000/472) No match (V2 was not tested)
11 [ebe873ca] (000/462) No match (V2 was not tested)
Offsetted by 6:
01 [d06245a4] (000/475) No match
02 [025fb58b] (000/474) No match
03 [2e41f160] (000/478) No match
04 [62013fb0] (000/472) No match
05 [b8d783b7] (000/470) No match
06 [f4ff4a8f] (000/468) No match
07 [4ee6382c] (000/475) No match
08 [9c2329f1] (000/473) No match
09 [032651eb] (000/470) No match
10 [7499c285] (000/472) No match (V2 was not tested)
11 [5b877e7e] (000/462) No match (V2 was not tested)
Offsetted by 23:
01 [63019c92] (000/475) No match (V2 was not tested)
02 [8cee6f4c] (000/474) No match (V2 was not tested)
03 [fc4f233d] (000/478) No match (V2 was not tested)
04 [d1de8d94] (000/472) No match (V2 was not tested)
05 [91d5b714] (000/470) No match (V2 was not tested)
06 [9d2e6970] (000/468) No match (V2 was not tested)
07 [9da1cd53] (000/475) No match (V2 was not tested)
08 [42790a29] (000/473) No match (V2 was not tested)
09 [fa4b7427] (000/470) No match (V2 was not tested)
10 [dddd712f] (000/472) No match (V2 was not tested)
11 [d759b553] (000/462) No match (V2 was not tested)

Track Peak [ CRC32 ] [W/O NULL] [ LOG ]
– 100,0 [C2010D26] [E0597EF0] CRC32
01 100,0 [BD936C7A] [8717C3D6]
02 100,0 [CBBF2178] [FBEDA1BE]
03 100,0 [1D51EB19] [E787F518]
04 100,0 [30A9FF2E] [E1D770B7]
05 100,0 [6CC0B6A9] [C8E95282]
06 100,0 [7A75A9E0] [03CF74A8]
07 100,0 [7032449F] [06838D0A]
08 100,0 [43A68613] [DF76EDD5]
09 100,0 [6E8F5A9F] [C03F99B1]
10 100,0 [7FBD701D] [54621A16]
11 100,0 [3698885C] [C0E23E8B]

DR log
foobar2000 1.2 / Dynamic Range Meter 1.1.1
log date: 2017-07-10 06:14:08

––––––––––––––––––––––––––––––––––––––––
Analyzed: Solomon Burke / Don’t Give Up On Me
––––––––––––––––––––––––––––––––––––––––

DR Peak RMS Duration Track
––––––––––––––––––––––––––––––––––––––––
DR10 0.00 dB -11.90 dB 3:46 01-Don’t Give Up On Me
DR8 0.00 dB -10.85 dB 5:43 02-Fast Train
DR9 0.00 dB -10.46 dB 4:25 03-Diamond In Your Mind
DR9 0.00 dB -11.10 dB 6:07 04-Flesh And Blood
DR10 0.00 dB -11.74 dB 3:59 05-Soul Searchin’
DR11 0.00 dB -12.46 dB 5:09 06-Only A Dream
DR10 0.00 dB -12.24 dB 3:31 07-The Judgement
DR10 0.00 dB -11.52 dB 5:10 08-Stepchild
DR9 0.00 dB -10.68 dB 3:47 09-The Other Side Of The Coin
DR9 0.00 dB -10.73 dB 5:29 10-None Of Us Are Free
DR11 0.00 dB -12.61 dB 4:34 11-Sit This One Out
––––––––––––––––––––––––––––––––––––––––

Number of tracks: 11
Official DR value: DR10

Samplerate: 44100 Hz
Channels: 2
Bits per sample: 16
Bitrate: 751 kbps
Codec: FLAC
================================================================================

Solomon Burke - Don't Give Up On Me (2002)

Solomon Burke - Don't Give Up On Me (2002)

All thanks to original releaser – jlhjlh

More interesting music in My Blog

Solomon Burke – Don't Give Up On Me (2002) Download, Warez, DDL, Free, Full Album, Torrent, Legal.

Download