Sniff 'n' the Tears – Love/Action `81 + Ride Blue Divide `82 (1990) [Teichiku TECP-22092, Japan]

Download
Sniff 'n' the Tears - Love/Action `81 + Ride Blue Divide `82 (1990) [Teichiku TECP-22092, Japan]

Sniff ‘n’ the Tears – Love/Action `81 + Ride Blue Divide `82 (1990)
EAC | Flac(Image) + Cue + Log & MP3 CBR 320Kbps
1990 | Teichiku, TECP-22092 | ~ 492 or 180 Mb | Scans(jpg) -> 22 Mb
Pop-Rock & Soft Rock

Best remembered for their 1978 hit "Driver’s Seat," London-based new wave combo Sniff ‘n’ the Tears emerged from the remnants of the little-known Ashes of Moon, which disbanded in 1974 after failing to stir up much label interest. The individual members of the band scattered during the mid-’70s, with frontman Paul Roberts turning his attention to painting; however, following the ascendance of the new wave, drummer Luigi Salvoni convinced Roberts to re-form the group with guitarists Mick Dyche and Loz Netto, bassist Nick South, and keyboardist Keith Miller, and in 1978, the newly christened Sniff ‘n’ the Tears began shopping their demo. Chiswick signed the band and issued its debut album, Fickle Heart, that summer, with the single "Driver’s Seat" becoming a major hit in the U.S. The Game’s Up appeared in 1980, but failed to make much of a commercial impact; when 1981’s Love Action and the following year’s Ride Blue Divide met a similar fate, Sniff ‘n’ the Tears disbanded. In the wake of "Driver’s Seat" experiencing a commercial-driven revival in 1992, Roberts assembled a new lineup of Sniff ‘n’ the Tears for a European tour and a new album, No Damage Done. Roberts continued under the moniker Sniff ‘n’ the Tears for 2001’s Underground, then he retired the band for another decade, reconvening a new lineup for 2011’s Downstream.

by Jason Ankeny, allmusic

Sniff 'n' the Tears - Love/Action `81 + Ride Blue Divide `82 (1990) [Teichiku TECP-22092, Japan]

Sniff ‘n’ the Tears – Love/Action `81 + Ride Blue Divide `82 (1990):

Sniff 'n' the Tears - Love/Action `81 + Ride Blue Divide `82 (1990) [Teichiku TECP-22092, Japan]

Tracklist:

01. The Driving Beat
02. Put Your Money Where Your Mouth Is
03. snow White
04. For What They Promise
05. Without Love
06. Steal My Heart
07. That Final Love
08. Don’t Frighten Me
09. Shame
10. Love Action
11. The Hand Of Fate
12. Hungry Eyes
13. Company Man
14. Roll The Weight Away
15. Like Wildfire
16. Trouble Is My Business
17. Gold
18. Ride Blue Divide

EAC Log
Exact Audio Copy V1.3 from 2. September 2016

Отчёт EAC об извлечении, выполненном 15. июля 2017, 14:18

Sniff ‘n’ the Tears / Love Action + Ride Blue Divide

Дисковод: ASUS DRW-24B3ST Adapter: 1 ID: 0

Режим чтения : Достоверность
Использование точного потока : Да
Отключение кэша аудио : Да
Использование указателей C2 : Нет

Коррекция смещения при чтении : 6
Способность читать области Lead-in и Lead-out : Нет
Заполнение пропущенных сэмплов тишиной : Да
Удаление блоков с тишиной в начале и конце : Нет
При вычислениях CRC использовались нулевые сэмплы : Да
Интерфейс : Встроенный Win32-интерфейс для Win NT/2000

Выходной формат : Пользовательский кодировщик
Выбранный битрейт : 128 kBit/s
Качество : Высокий
Добавление ID3-тега : Нет
Утилита сжатия : C:Program Files (x86)Exact Audio CopyFlacflac.exe
Дополнительные параметры : -V -8 -T "Date=%year%" -T "Genre=%genre%" %source%

TOC извлечённого CD

Трек | Старт | Длительность | Начальный сектор | Конечный сектор
––––––––––––––––––––––––––––––––––-
1 | 0:00.00 | 3:31.17 | 0 | 15841
2 | 3:31.17 | 4:19.00 | 15842 | 35266
3 | 7:50.17 | 4:21.33 | 35267 | 54874
4 | 12:11.50 | 4:26.17 | 54875 | 74841
5 | 16:37.67 | 3:44.25 | 74842 | 91666
6 | 20:22.17 | 4:36.33 | 91667 | 112399
7 | 24:58.50 | 3:53.35 | 112400 | 129909
8 | 28:52.10 | 3:19.15 | 129910 | 144849
9 | 32:11.25 | 4:54.37 | 144850 | 166936
10 | 37:05.62 | 4:06.68 | 166937 | 185454
11 | 41:12.55 | 4:36.60 | 185455 | 206214
12 | 45:49.40 | 3:33.20 | 206215 | 222209
13 | 49:22.60 | 5:17.25 | 222210 | 246009
14 | 54:40.10 | 3:41.67 | 246010 | 262651
15 | 58:22.02 | 3:19.60 | 262652 | 277636
16 | 61:41.62 | 4:49.05 | 277637 | 299316
17 | 66:30.67 | 4:33.50 | 299317 | 319841
18 | 71:04.42 | 4:59.28 | 319842 | 342294

Характеристики диапазона извлечения и сообщения об ошибках

Выбранный диапазон

Имя файла E:РаздачиПапкиSniff ‘n’ the Tears-Collection1990 – Love Action+Ride Blue Divide (Japanese Edition)Sniff ‘n’ the Tears – Love Action + Ride Blue Divide.wav

Пиковый уровень 98.4 %
Скорость извлечения 6.8 X
Качество диапазона 100.0 %
CRC теста C3AF08BC
CRC копии C3AF08BC
Копирование… OK

Ошибок не произошло

AccurateRip: сводка

Трек 1 : извлечено точно (доверие 2) [2CE86363] (AR v2)
Трек 2 : извлечено точно (доверие 2) [6ADA38B2] (AR v2)
Трек 3 : извлечено точно (доверие 2) [FBE346E8] (AR v2)
Трек 4 : извлечено точно (доверие 2) [A8F3C92B] (AR v2)
Трек 5 : извлечено точно (доверие 2) [B1FFB15D] (AR v2)
Трек 6 : извлечено точно (доверие 2) [B136FE6C] (AR v2)
Трек 7 : извлечено точно (доверие 2) [CB17C4FD] (AR v2)
Трек 8 : извлечено точно (доверие 2) [CBE20A8B] (AR v2)
Трек 9 : извлечено точно (доверие 2) [4B014B17] (AR v2)
Трек 10 : извлечено точно (доверие 2) [73CEB1AA] (AR v2)
Трек 11 : извлечено точно (доверие 2) [487371ED] (AR v1)
Трек 12 : извлечено точно (доверие 2) [8EF54F91] (AR v2)
Трек 13 : извлечено точно (доверие 2) [B42B1EBD] (AR v2)
Трек 14 : извлечено точно (доверие 2) [84F137DB] (AR v2)
Трек 15 : извлечено точно (доверие 2) [870C548D] (AR v2)
Трек 16 : извлечено точно (доверие 2) [26203F20] (AR v2)
Трек 17 : извлечено точно (доверие 2) [4703CD95] (AR v1)
Трек 18 : извлечено точно (доверие 2) [EEC521AC] (AR v2)

Все треки извлечены точно

Конец отчёта

==== Контрольная сумма отчёта 7B5B5909117DA93C3EEC4BEE4468202A497A6E36ADBB09E129F2F746D111A3D2 ====

DR Log
foobar2000 1.2.9 / Dynamic Range Meter 1.1.1
log date: 2017-07-24 20:53:35

––––––––––––––––––––––––––––––––––––––––
Analyzed: Sniff ‘n’ the Tears / Love Action + Ride Blue Divide
––––––––––––––––––––––––––––––––––––––––

DR Peak RMS Duration Track
––––––––––––––––––––––––––––––––––––––––
DR11 -0.28 dB -13.54 dB 3:31 01-The Driving Beat
DR11 -0.13 dB -13.06 dB 4:19 02-Put Your Money Where Your Mouth Is
DR12 -0.75 dB -14.14 dB 4:21 03-Snow White
DR10 -0.43 dB -13.59 dB 4:26 04-For What They Promise
DR11 -1.39 dB -13.95 dB 3:44 05-Without Love
DR11 -0.67 dB -14.98 dB 4:36 06-Steal My Heart
DR11 -1.61 dB -14.75 dB 3:53 07-That Final Love
DR12 -1.78 dB -15.59 dB 3:19 08-Don’t Frighten Me
DR11 -1.55 dB -14.85 dB 4:54 09-Shame
DR11 -0.75 dB -14.26 dB 4:07 10-Love Action
DR13 -0.64 dB -16.62 dB 4:37 11-The Hand Of Fate
DR13 -0.44 dB -14.54 dB 3:33 12-Hungry Eyes
DR13 -0.45 dB -16.16 dB 5:17 13-Company Man
DR14 -0.50 dB -15.81 dB 3:42 14-Roll The Weight Away
DR13 -0.61 dB -16.03 dB 3:20 15-Like Wildfire
DR13 -0.32 dB -15.31 dB 4:49 16-Trouble Is My Business
DR13 -0.34 dB -16.53 dB 4:34 17-Gold
DR13 -0.18 dB -14.48 dB 4:59 18-Ride Blue Divide
––––––––––––––––––––––––––––––––––––––––

Number of tracks: 18
Official DR value: DR12

Samplerate: 44100 Hz
Channels: 2
Bits per sample: 16
Bitrate: 879 kbps
Codec: FLAC
================================================================================

CUETools Log
[CUETools log; Date: 19.07.2017 11:56:22; Version: 2.1.4]
[CTDB TOCID: Zz806SdyDTxWPKRz90mhpskiCNA-] found.
Track | CTDB Status
1 | (3/3) Accurately ripped
2 | (3/3) Accurately ripped
3 | (3/3) Accurately ripped
4 | (3/3) Accurately ripped
5 | (3/3) Accurately ripped
6 | (3/3) Accurately ripped
7 | (3/3) Accurately ripped
8 | (3/3) Accurately ripped
9 | (3/3) Accurately ripped
10 | (3/3) Accurately ripped
11 | (2/3) Accurately ripped, or (1/3) differs in 3898 samples @01:14:48-01:14:49,01:14:66-01:14:67,01:15:09-01:15:10,01:15:45-01:15:46,01:15:63-01:15:64,01:16:06-01:16:07,01:16:24-01:16:25,01:16:42-01:16:43,01:16:60-01:16:61,01:17:03-01:17:04,01:17:21-01:17:22,01:17:40,01:17:58-01:17:59,01:18:01-01:18:02,01:18:19-01:18:20,01:18:37-01:18:38,01:18:55-01:18:56,01:18:73-01:18:74,01:19:16-01:19:17,01:19:34-01:19:35,01:19:52-01:19:53,01:19:70-01:19:71,01:20:13-01:20:14,01:20:31-01:20:32,01:20:49-01:20:50,01:20:67-01:20:68,01:21:10-01:21:11,01:21:28-01:21:29,01:22:08-01:22:09,01:22:26-01:22:27,01:22:44-01:22:45,01:23:05-01:23:06
12 | (3/3) Accurately ripped
13 | (3/3) Accurately ripped
14 | (3/3) Accurately ripped
15 | (3/3) Accurately ripped
16 | (3/3) Accurately ripped
17 | (3/3) Accurately ripped
18 | (3/3) Accurately ripped
[AccurateRip ID: 0030a5ff-028aec3b-fe11d312] found.
Track [ CRC | V2 ] Status
01 [91aec096|2ce86363] (2+2/4) Accurately ripped
02 [03b0292b|6ada38b2] (2+2/4) Accurately ripped
03 [3df8fbac|fbe346e8] (2+2/4) Accurately ripped
04 [83506a4b|a8f3c92b] (2+2/4) Accurately ripped
05 [08953f5a|b1ffb15d] (2+2/4) Accurately ripped
06 [73135e8f|b136fe6c] (2+2/4) Accurately ripped
07 [c04a5760|cb17c4fd] (2+2/4) Accurately ripped
08 [845a971b|cbe20a8b] (2+2/4) Accurately ripped
09 [30070e41|4b014b17] (2+2/4) Accurately ripped
10 [36576380|73ceb1aa] (2+2/4) Accurately ripped
11 [487371ed|cec91dd1] (2+0/2) Accurately ripped
12 [055924b9|8ef54f91] (2+2/4) Accurately ripped
13 [6da49e9f|b42b1ebd] (2+2/4) Accurately ripped
14 [99bf5e89|84f137db] (2+2/4) Accurately ripped
15 [d8d1cfcb|870c548d] (2+2/4) Accurately ripped
16 [acaf0711|26203f20] (2+2/4) Accurately ripped
17 [4703cd95|b8620b3a] (2+0/2) Accurately ripped
18 [5fb5c3e4|eec521ac] (2+2/4) Accurately ripped

Track Peak [ CRC32 ] [W/O NULL] [ LOG ]
– 98,4 [C3AF08BC] [6EF99183] CRC32
01 96,8 [9C73195E] [97C53326]
02 98,4 [898B5693] [76A8F454]
03 91,7 [FD976AC8] [1ECD7E67]
04 95,2 [1E762F3D] [5D86E2D3]
05 85,2 [BBF7A4ED] [E20E9312]
06 92,6 [E4719088] [A5AED6D4]
07 83,1 [C4BDCF51] [702D9817]
08 81,4 [7146AFDB] [AF979564]
09 83,6 [8DBB21C6] [345A5A53]
10 91,6 [FB7B4BFD] [76CF4B08]
11 92,8 [D0CB399C] [D52847AA]
12 95,0 [FD6EE8D7] [CF7BFAEA]
13 94,9 [8615920E] [2EBD95DB]
14 94,4 [B0B9A569] [56AAC5CF]
15 93,2 [11DF68B2] [4740F0CF]
16 96,3 [7C07406A] [485E818F]
17 96,1 [3EBBE46C] [3E20FE4E]
18 97,9 [1D1ADC32] [FAA2DB8F]

Sniff 'n' the Tears - Love/Action `81 + Ride Blue Divide `82 (1990) [Teichiku TECP-22092, Japan]

All thanks go to eloychik

Sniff ‘n’ the Tears in my Blog

Download Sniff ‘n’ the Tears – Love/Action `81 + Ride Blue Divide `82 (1990):

Sniff 'n' the Tears – Love/Action `81 + Ride Blue Divide `82 (1990) [Teichiku TECP-22092, Japan] Download, Warez, DDL, Free, Full Album, Torrent, Legal.

Download