Sizzla – Rastafari Teach I Everything (2001) {Greensleeves}

Download
Sizzla - Rastafari Teach I Everything (2001) {Greensleeves}

Sizzla – Rastafari Teach I Everything (2001) {Greensleeves}
EAC Rip | FLAC with CUE and log | scans | 358 mb
MP3 CBR 320kbps | RAR | 124 mb
Genre: reggae, dancehall, ragga

Rastafari Teach I Everything is the 2001 Greensleeves Records album by Jamaican singer Sizzla Kalonji, better known as Sizzla. This features the songs "Stay Clean", "Better Make Sure", and "Yes I Get High". This was produced by Philip "Fatis" Burrell.

Sizzla - Rastafari Teach I Everything (2001) {Greensleeves}

1. Rastafari Teach I Everything (4:44)
2. Beautiful (4:02)
3. Yes I Get High (3:26)
4. Better Make Sure (4:08)
5. Revenge (3:53)
6. Planet Earth (4:18)
7. Escape From Prison (3:51)
8. Give Her The Loving (4:43)
9. It This (3:32)
10. No Problem (3:59)
11. Stay Clean (3:17)
12. Energy (3:48)
13. Make Love (4:17)

Produced by Philip "Fatis" Burrell

Sizzla - Rastafari Teach I Everything (2001) {Greensleeves}
EAC Log
Exact Audio Copy V1.1 from 23. June 2015

EAC extraction logfile from 20. December 2016, 9:16

Sizzla / Rastafari Teach I Everything

Used drive : TEAC DVD-ROM DV-28SW Adapter: 1 ID: 0

Read mode : Secure
Utilize accurate stream : Yes
Defeat audio cache : Yes
Make use of C2 pointers : No

Read offset correction : 6
Overread into Lead-In and Lead-Out : No
Fill up missing offset samples with silence : Yes
Delete leading and trailing silent blocks : No
Null samples used in CRC calculations : Yes
Used interface : Native Win32 interface for Win NT & 2000
Gap handling : Appended to previous track

Used output format : Internal WAV Routines
Sample format : 44.100 Hz; 16 Bit; Stereo

TOC of the extracted CD

Track | Start | Length | Start sector | End sector
––––––––––––––––––––––––––––-
1 | 0:00.00 | 4:44.23 | 0 | 21322
2 | 4:44.23 | 4:02.20 | 21323 | 39492
3 | 8:46.43 | 3:26.22 | 39493 | 54964
4 | 12:12.65 | 4:08.18 | 54965 | 73582
5 | 16:21.08 | 3:53.70 | 73583 | 91127
6 | 20:15.03 | 4:18.02 | 91128 | 110479
7 | 24:33.05 | 3:51.58 | 110480 | 127862
8 | 28:24.63 | 4:43.20 | 127863 | 149107
9 | 33:08.08 | 3:32.07 | 149108 | 165014
10 | 36:40.15 | 3:59.10 | 165015 | 182949
11 | 40:39.25 | 3:17.55 | 182950 | 197779
12 | 43:57.05 | 3:48.35 | 197780 | 214914
13 | 47:45.40 | 4:17.63 | 214915 | 234252

Track 1

Filename C:My DocumentsMy FLACSizzla – Rastafari Teach I Everything (2001) [FLAC] {Greensleeves}1 – Rastafari Teach I Everything.wav

Pre-gap length 0:00:02.00

Peak level 98.0 %
Extraction speed 2.8 X
Track quality 100.0 %
Test CRC 9159ED00
Copy CRC 9159ED00
Accurately ripped (confidence 3) [1AA2758E] (AR v2)
Copy OK

Track 2

Filename C:My DocumentsMy FLACSizzla – Rastafari Teach I Everything (2001) [FLAC] {Greensleeves}2 – Beautiful.wav

Pre-gap length 0:00:00.18

Peak level 98.0 %
Extraction speed 3.0 X
Track quality 100.0 %
Test CRC 9001E4A0
Copy CRC 9001E4A0
Accurately ripped (confidence 3) [F7AB7C40] (AR v2)
Copy OK

Track 3

Filename C:My DocumentsMy FLACSizzla – Rastafari Teach I Everything (2001) [FLAC] {Greensleeves}3 – Yes I Get High.wav

Pre-gap length 0:00:00.50

Peak level 98.0 %
Extraction speed 3.0 X
Track quality 100.0 %
Test CRC 79BF72AD
Copy CRC 79BF72AD
Accurately ripped (confidence 3) [B3E8D967] (AR v2)
Copy OK

Track 4

Filename C:My DocumentsMy FLACSizzla – Rastafari Teach I Everything (2001) [FLAC] {Greensleeves}4 – Better Make Sure.wav

Pre-gap length 0:00:00.17

Peak level 98.0 %
Extraction speed 3.6 X
Track quality 100.0 %
Test CRC DC89B818
Copy CRC DC89B818
Accurately ripped (confidence 3) [AE8BF98B] (AR v2)
Copy OK

Track 5

Filename C:My DocumentsMy FLACSizzla – Rastafari Teach I Everything (2001) [FLAC] {Greensleeves}5 – Revenge.wav

Pre-gap length 0:00:00.21

Peak level 98.0 %
Extraction speed 3.5 X
Track quality 100.0 %
Test CRC A2F806BC
Copy CRC A2F806BC
Accurately ripped (confidence 3) [8A0B98AC] (AR v2)
Copy OK

Track 6

Filename C:My DocumentsMy FLACSizzla – Rastafari Teach I Everything (2001) [FLAC] {Greensleeves}6 – Planet Earth.wav

Pre-gap length 0:00:00.40

Peak level 98.0 %
Extraction speed 3.9 X
Track quality 100.0 %
Test CRC 1A4718DD
Copy CRC 1A4718DD
Accurately ripped (confidence 3) [8F01944E] (AR v2)
Copy OK

Track 7

Filename C:My DocumentsMy FLACSizzla – Rastafari Teach I Everything (2001) [FLAC] {Greensleeves}7 – Escape From Prison.wav

Pre-gap length 0:00:00.40

Peak level 98.0 %
Extraction speed 3.3 X
Track quality 100.0 %
Test CRC 3D75A71A
Copy CRC 3D75A71A
Accurately ripped (confidence 3) [21F86FA3] (AR v2)
Copy OK

Track 8

Filename C:My DocumentsMy FLACSizzla – Rastafari Teach I Everything (2001) [FLAC] {Greensleeves}8 – Give Her The Loving.wav

Pre-gap length 0:00:00.48

Peak level 98.0 %
Extraction speed 4.3 X
Track quality 100.0 %
Test CRC 717107CC
Copy CRC 717107CC
Accurately ripped (confidence 3) [0D0C6466] (AR v2)
Copy OK

Track 9

Filename C:My DocumentsMy FLACSizzla – Rastafari Teach I Everything (2001) [FLAC] {Greensleeves}9 – It This.wav

Peak level 98.0 %
Extraction speed 4.3 X
Track quality 100.0 %
Test CRC A2022FC1
Copy CRC A2022FC1
Accurately ripped (confidence 3) [BD8F2F09] (AR v2)
Copy OK

Track 10

Filename C:My DocumentsMy FLACSizzla – Rastafari Teach I Everything (2001) [FLAC] {Greensleeves}10 – No Problem.wav

Pre-gap length 0:00:00.22

Peak level 98.0 %
Extraction speed 4.7 X
Track quality 100.0 %
Test CRC CA61F331
Copy CRC CA61F331
Accurately ripped (confidence 3) [F6CDBF91] (AR v2)
Copy OK

Track 11

Filename C:My DocumentsMy FLACSizzla – Rastafari Teach I Everything (2001) [FLAC] {Greensleeves}11 – Stay Clean.wav

Pre-gap length 0:00:01.15

Peak level 98.0 %
Extraction speed 4.6 X
Track quality 100.0 %
Test CRC 9E607E31
Copy CRC 9E607E31
Accurately ripped (confidence 3) [2C07D45D] (AR v2)
Copy OK

Track 12

Filename C:My DocumentsMy FLACSizzla – Rastafari Teach I Everything (2001) [FLAC] {Greensleeves}12 – Energy.wav

Pre-gap length 0:00:00.20

Peak level 98.0 %
Extraction speed 4.1 X
Track quality 100.0 %
Test CRC 6203FA6B
Copy CRC 6203FA6B
Accurately ripped (confidence 3) [3600171A] (AR v2)
Copy OK

Track 13

Filename C:My DocumentsMy FLACSizzla – Rastafari Teach I Everything (2001) [FLAC] {Greensleeves}13 – Make Love.wav

Pre-gap length 0:00:00.53

Peak level 98.0 %
Extraction speed 5.0 X
Track quality 100.0 %
Test CRC 89206DE0
Copy CRC 89206DE0
Accurately ripped (confidence 3) [42BF4D20] (AR v2)
Copy OK

All tracks accurately ripped

No errors occurred

End of status report

–– CUETools DB Plugin V2.1.6

[CTDB TOCID: cFTyW1W4_1.GiHBytTuTXaYdhrk-] found
Submit result: cFTyW1W4_1.GiHBytTuTXaYdhrk- has been confirmed
Track | CTDB Status
1 | (3/3) Accurately ripped
2 | (3/3) Accurately ripped
3 | (3/3) Accurately ripped
4 | (3/3) Accurately ripped
5 | (3/3) Accurately ripped
6 | (3/3) Accurately ripped
7 | (3/3) Accurately ripped
8 | (3/3) Accurately ripped
9 | (3/3) Accurately ripped
10 | (3/3) Accurately ripped
11 | (2/3) Accurately ripped, or (1/3) differs in 962 samples @02:46:21-02:46:22,02:46:56-02:46:57,02:47:32-02:47:33,02:47:50-02:47:51,02:49:55-02:49:56
12 | (3/3) Accurately ripped
13 | (3/3) Accurately ripped

==== Log checksum A091FB413957FEF46DC2B27090727343FC828CCA75ECBC85C43DD4B3DED2F2CF ====

Sizzla - Rastafari Teach I Everything (2001) {Greensleeves}

Sizzla – Rastafari Teach I Everything (2001) {Greensleeves} Download, Warez, DDL, Free, Full Album, Torrent, Legal.

Download