Sizzla – Good Ways (1998) {Brickwall}

Download
Sizzla - Good Ways (1998) {Brickwall}

Sizzla – Good Ways (1998) {Brickwall}
EAC Rip | FLAC with CUE and log | scans | 332 mb
MP3 CBR 320kbps | RAR | 120 mb
Genre: reggae, dancehall, ragga

Brickwall Records released this 1998 album by Sizzla Kalonji called Good Ways. Better known simply as Sizzla, this album features "Trust & Love", "Can’t Cool Can’t Quench" and "Bless The Youth" among others.

Sizzla - Good Ways (1998) {Brickwall}

1. Bless Me (3:26)
2. Good Ways (3:23)
3. Azanldo (3:12)
4. Trust & Love (3:42)
5. Bless The Youth (3:47)
6. Any Time (3:24)
7. Gun Handling Pros (3:42)
8. Mockries & Phrase (4:31)
9. Protect Us & Bless Us (3:47)
10. Can’t Cool Can’t Quench (4:15)
11. Suffer If They Don’t Hear (3:36)
12. Half Has Been Never Been Told (3:44)
13. Big & Bold (3:31)
14. Joyful (3:44)

Produced and arranged by Bobby Digital Dixon & The Crew except:
Tracks 1 & 11 produced by Bobby Digital Dixon & Sheldon Stewart
Track 10 produced by Bobby Digital Dixon & Gary Tomlinson
Track 6 produced by Pall "Jazzwad" Yebuah
Track 7 Produced by Homer Harris

EAC Log
Exact Audio Copy V1.1 from 23. June 2015

EAC extraction logfile from 18. December 2016, 7:26

Sizzla / Good Ways

Used drive : TEAC DVD-ROM DV-28SW Adapter: 1 ID: 0

Read mode : Secure
Utilize accurate stream : Yes
Defeat audio cache : Yes
Make use of C2 pointers : No

Read offset correction : 6
Overread into Lead-In and Lead-Out : No
Fill up missing offset samples with silence : Yes
Delete leading and trailing silent blocks : No
Null samples used in CRC calculations : Yes
Used interface : Native Win32 interface for Win NT & 2000
Gap handling : Appended to previous track

Used output format : Internal WAV Routines
Sample format : 44.100 Hz; 16 Bit; Stereo

TOC of the extracted CD

Track | Start | Length | Start sector | End sector
––––––––––––––––––––––––––––-
1 | 0:00.00 | 3:29.11 | 0 | 15685
2 | 3:29.11 | 3:23.26 | 15686 | 30936
3 | 6:52.37 | 3:12.17 | 30937 | 45353
4 | 10:04.54 | 3:42.28 | 45354 | 62031
5 | 13:47.07 | 3:47.46 | 62032 | 79102
6 | 17:34.53 | 3:24.05 | 79103 | 94407
7 | 20:58.58 | 3:42.41 | 94408 | 111098
8 | 24:41.24 | 4:31.68 | 111099 | 131491
9 | 29:13.17 | 3:47.09 | 131492 | 148525
10 | 33:00.26 | 4:15.66 | 148526 | 167716
11 | 37:16.17 | 3:36.44 | 167717 | 183960
12 | 40:52.61 | 3:44.61 | 183961 | 200821
13 | 44:37.47 | 3:31.14 | 200822 | 216660
14 | 48:08.61 | 3:46.06 | 216661 | 233616

Track 1

Filename C:My DocumentsMy FLACSizzla – Good Ways (1998) [FLAC] {Brickwall}1 – Bless Me.wav

Pre-gap length 0:00:02.00

Peak level 100.0 %
Extraction speed 1.0 X
Track quality 99.9 %
Test CRC 559BBE4E
Copy CRC 559BBE4E
Accurately ripped (confidence 2) [2872669E] (AR v2)
Copy OK

Track 2

Filename C:My DocumentsMy FLACSizzla – Good Ways (1998) [FLAC] {Brickwall}2 – Good Ways.wav

Peak level 100.0 %
Extraction speed 1.2 X
Track quality 100.0 %
Test CRC A2BD4F78
Copy CRC A2BD4F78
Accurately ripped (confidence 2) [B793FA77] (AR v2)
Copy OK

Track 3

Filename C:My DocumentsMy FLACSizzla – Good Ways (1998) [FLAC] {Brickwall}3 – Azanido.wav

Peak level 100.0 %
Extraction speed 1.1 X
Track quality 99.9 %
Test CRC 0B3BD4A8
Copy CRC 0B3BD4A8
Accurately ripped (confidence 2) [CCFB8762] (AR v2)
Copy OK

Track 4

Filename C:My DocumentsMy FLACSizzla – Good Ways (1998) [FLAC] {Brickwall}4 – Trust & Love.wav

Peak level 100.0 %
Extraction speed 1.4 X
Track quality 100.0 %
Test CRC 7B945E3A
Copy CRC 7B945E3A
Accurately ripped (confidence 2) [88F89CCE] (AR v2)
Copy OK

Track 5

Filename C:My DocumentsMy FLACSizzla – Good Ways (1998) [FLAC] {Brickwall}5 – Bless The Youth.wav

Peak level 100.0 %
Extraction speed 1.5 X
Track quality 100.0 %
Test CRC 83AF9D0E
Copy CRC 83AF9D0E
Accurately ripped (confidence 2) [B5ACD7E0] (AR v2)
Copy OK

Track 6

Filename C:My DocumentsMy FLACSizzla – Good Ways (1998) [FLAC] {Brickwall}6 – Any Time.wav

Peak level 100.0 %
Extraction speed 0.4 X
Track quality 100.0 %
Test CRC E806E183
Copy CRC E806E183
Accurately ripped (confidence 2) [23F1E3ED] (AR v2)
Copy OK

Track 7

Filename C:My DocumentsMy FLACSizzla – Good Ways (1998) [FLAC] {Brickwall}7 – Gun Handling Pros.wav

Peak level 100.0 %
Extraction speed 1.7 X
Track quality 100.0 %
Test CRC B2399B48
Copy CRC B2399B48
Accurately ripped (confidence 2) [990AEFA3] (AR v2)
Copy OK

Track 8

Filename C:My DocumentsMy FLACSizzla – Good Ways (1998) [FLAC] {Brickwall}8 – Mockries & Praise.wav

Peak level 100.0 %
Extraction speed 1.6 X
Track quality 99.9 %
Test CRC 4567D21A
Copy CRC 4567D21A
Accurately ripped (confidence 2) [69C635FA] (AR v2)
Copy OK

Track 9

Filename C:My DocumentsMy FLACSizzla – Good Ways (1998) [FLAC] {Brickwall}9 – Protect Us.wav

Peak level 100.0 %
Extraction speed 1.9 X
Track quality 100.0 %
Test CRC CE6C8309
Copy CRC CE6C8309
Accurately ripped (confidence 2) [4BF0ED28] (AR v2)
Copy OK

Track 10

Filename C:My DocumentsMy FLACSizzla – Good Ways (1998) [FLAC] {Brickwall}10 – Can’t Cool Can’t Quench.wav

Peak level 100.0 %
Extraction speed 1.9 X
Track quality 100.0 %
Test CRC 40226E1E
Copy CRC 40226E1E
Accurately ripped (confidence 2) [BA9643C1] (AR v2)
Copy OK

Track 11

Filename C:My DocumentsMy FLACSizzla – Good Ways (1998) [FLAC] {Brickwall}11 – Suffer If They Don’t Hear.wav

Peak level 100.0 %
Extraction speed 2.0 X
Track quality 100.0 %
Test CRC D760FB97
Copy CRC D760FB97
Accurately ripped (confidence 2) [17B52FBF] (AR v2)
Copy OK

Track 12

Filename C:My DocumentsMy FLACSizzla – Good Ways (1998) [FLAC] {Brickwall}12 – Half That Has Never Been Told.wav

Peak level 100.0 %
Extraction speed 2.1 X
Track quality 100.0 %
Test CRC F1B43D89
Copy CRC F1B43D89
Accurately ripped (confidence 2) [EFF18590] (AR v2)
Copy OK

Track 13

Filename C:My DocumentsMy FLACSizzla – Good Ways (1998) [FLAC] {Brickwall}13 – Big & Bold.wav

Peak level 100.0 %
Extraction speed 0.5 X
Track quality 100.0 %
Test CRC B8DCFE86
Copy CRC B8DCFE86
Accurately ripped (confidence 2) [8E8A3803] (AR v2)
Copy OK

Track 14

Filename C:My DocumentsMy FLACSizzla – Good Ways (1998) [FLAC] {Brickwall}14 – Joyful.wav

Peak level 100.0 %
Extraction speed 1.9 X
Track quality 99.9 %
Test CRC 187E9110
Copy CRC 187E9110
Accurately ripped (confidence 2) [ACB1EFB4] (AR v2)
Copy OK

All tracks accurately ripped

No errors occurred

End of status report

–– CUETools DB Plugin V2.1.6

[CTDB TOCID: 54m3fbaswvGTScgLRcae3YYjy0U-] found
Submit result: 54m3fbaswvGTScgLRcae3YYjy0U- has been confirmed
Track | CTDB Status
1 | (1/1) Accurately ripped
2 | (1/1) Accurately ripped
3 | (1/1) Accurately ripped
4 | (1/1) Accurately ripped
5 | (1/1) Accurately ripped
6 | (1/1) Accurately ripped
7 | (1/1) Accurately ripped
8 | (1/1) Accurately ripped
9 | (1/1) Accurately ripped
10 | (1/1) Accurately ripped
11 | (1/1) Accurately ripped
12 | (1/1) Accurately ripped
13 | (1/1) Accurately ripped
14 | (1/1) Accurately ripped

==== Log checksum CB899C36403E87D313DE16268801615B9950D3B4497B1C78B34333D509ABC097 ====

Sizzla - Good Ways (1998) {Brickwall}

Sizzla – Good Ways (1998) {Brickwall} Download, Warez, DDL, Free, Full Album, Torrent, Legal.

Download