Sizzla – Freedom Cry (1998) {Xterminator/VP}

Download
Sizzla - Freedom Cry (1998) {Xterminator/VP}

Sizzla – Freedom Cry (1998) {Xterminator/VP}
EAC Rip | FLAC with CUE and log | scans | 322 mb
MP3 CBR 320kbps | RAR | 113 mb
Genre: reggae, dancehall, ragga

Freedom Cry is the 1998 album by Jamaican artist Sizzla Kalonji, better known simply as Sizzla. This was released on Xterminator via VP Records and is produced by Phillip "Fattis" Burrell. This features the singles "Till It Some More", "She’s Like The Roses" and "Dem Ah Try Ah Thing"

Sizzla - Freedom Cry (1998) {Xterminator/VP}

1. Real (3:49)
2. Jah Blessing (3:48)
3. Dem Ah Try Ah Ting (3:52)
4. Lovely Morning (3:44)
5. She’s Like The Roses (3:08)
6. Saturated (3:54)
7. Love Amongst My Brethren (3:59)
8. Made Of (3:53)
9. Freedom Cry (4:02)
10. Long Journey (4:10)
11. Till It Some More (3:48)
12. Rain Shower (3:45)
13. Ancient Memories (3:38)

Luciano-guest vocals (track 2)

Produced by Phillip "Fattis" Burrell

EAC Log
Exact Audio Copy V1.1 from 23. June 2015

EAC extraction logfile from 17. December 2016, 22:38

Sizzla / Freedom Cry

Used drive : TEAC DVD-ROM DV-28SW Adapter: 1 ID: 0

Read mode : Secure
Utilize accurate stream : Yes
Defeat audio cache : Yes
Make use of C2 pointers : No

Read offset correction : 6
Overread into Lead-In and Lead-Out : No
Fill up missing offset samples with silence : Yes
Delete leading and trailing silent blocks : No
Null samples used in CRC calculations : Yes
Used interface : Native Win32 interface for Win NT & 2000
Gap handling : Appended to previous track

Used output format : Internal WAV Routines
Sample format : 44.100 Hz; 16 Bit; Stereo

TOC of the extracted CD

Track | Start | Length | Start sector | End sector
––––––––––––––––––––––––––––-
1 | 0:00.00 | 3:49.57 | 0 | 17231
2 | 3:49.57 | 3:48.63 | 17232 | 34394
3 | 7:38.45 | 3:52.25 | 34395 | 51819
4 | 11:30.70 | 3:44.30 | 51820 | 68649
5 | 15:15.25 | 3:08.35 | 68650 | 82784
6 | 18:23.60 | 3:54.15 | 82785 | 100349
7 | 22:18.00 | 3:59.12 | 100350 | 118286
8 | 26:17.12 | 3:53.45 | 118287 | 135806
9 | 30:10.57 | 4:02.58 | 135807 | 154014
10 | 34:13.40 | 4:10.30 | 154015 | 172794
11 | 38:23.70 | 3:48.02 | 172795 | 189896
12 | 42:11.72 | 3:45.10 | 189897 | 206781
13 | 45:57.07 | 3:38.05 | 206782 | 223136

Track 1

Filename C:My DocumentsMy FLACSizzla – Freedom Cry (1998) [FLAC] {Xterminator, VP}1 – Real.wav

Pre-gap length 0:00:02.00

Peak level 99.9 %
Extraction speed 2.2 X
Track quality 99.9 %
Test CRC FC421D5A
Copy CRC FC421D5A
Accurately ripped (confidence 4) [43AFDE1F] (AR v2)
Copy OK

Track 2

Filename C:My DocumentsMy FLACSizzla – Freedom Cry (1998) [FLAC] {Xterminator, VP}2 – Jah Blessing.wav

Peak level 99.9 %
Extraction speed 3.1 X
Track quality 100.0 %
Test CRC 2E0375D7
Copy CRC 2E0375D7
Accurately ripped (confidence 3) [DAA82754] (AR v2)
Copy OK

Track 3

Filename C:My DocumentsMy FLACSizzla – Freedom Cry (1998) [FLAC] {Xterminator, VP}3 – Dem Ah Try Ah Ting.wav

Peak level 99.9 %
Extraction speed 3.4 X
Track quality 100.0 %
Test CRC 009046D7
Copy CRC 009046D7
Accurately ripped (confidence 3) [1ED8BF38] (AR v2)
Copy OK

Track 4

Filename C:My DocumentsMy FLACSizzla – Freedom Cry (1998) [FLAC] {Xterminator, VP}4 – Lovely Morning.wav

Pre-gap length 0:00:01.33

Peak level 99.9 %
Extraction speed 3.0 X
Track quality 99.9 %
Test CRC F7E76550
Copy CRC F7E76550
Accurately ripped (confidence 4) [5952E34E] (AR v2)
Copy OK

Track 5

Filename C:My DocumentsMy FLACSizzla – Freedom Cry (1998) [FLAC] {Xterminator, VP}5 – She’s Like The Roses.wav

Pre-gap length 0:00:01.08

Peak level 99.9 %
Extraction speed 3.7 X
Track quality 100.0 %
Test CRC 58CCF572
Copy CRC 58CCF572
Accurately ripped (confidence 4) [898A4BA8] (AR v2)
Copy OK

Track 6

Filename C:My DocumentsMy FLACSizzla – Freedom Cry (1998) [FLAC] {Xterminator, VP}6 – Saturated.wav

Peak level 99.9 %
Extraction speed 4.1 X
Track quality 100.0 %
Test CRC D865E898
Copy CRC D865E898
Accurately ripped (confidence 4) [D9C32D25] (AR v2)
Copy OK

Track 7

Filename C:My DocumentsMy FLACSizzla – Freedom Cry (1998) [FLAC] {Xterminator, VP}7 – Love Amongst My Brethren.wav

Pre-gap length 0:00:01.13

Peak level 99.9 %
Extraction speed 4.3 X
Track quality 100.0 %
Test CRC 9BD240D9
Copy CRC 9BD240D9
Accurately ripped (confidence 4) [434DB890] (AR v2)
Copy OK

Track 8

Filename C:My DocumentsMy FLACSizzla – Freedom Cry (1998) [FLAC] {Xterminator, VP}8 – Made Of.wav

Peak level 99.9 %
Extraction speed 4.4 X
Track quality 100.0 %
Test CRC 5D646D4B
Copy CRC 5D646D4B
Accurately ripped (confidence 4) [EE4FAAA3] (AR v2)
Copy OK

Track 9

Filename C:My DocumentsMy FLACSizzla – Freedom Cry (1998) [FLAC] {Xterminator, VP}9 – Freedom Cry.wav

Peak level 99.9 %
Extraction speed 4.6 X
Track quality 100.0 %
Test CRC A2B5B0FA
Copy CRC A2B5B0FA
Accurately ripped (confidence 4) [640BCC3E] (AR v2)
Copy OK

Track 10

Filename C:My DocumentsMy FLACSizzla – Freedom Cry (1998) [FLAC] {Xterminator, VP}10 – Long Journey.wav

Peak level 99.9 %
Extraction speed 4.9 X
Track quality 100.0 %
Test CRC 57844854
Copy CRC 57844854
Accurately ripped (confidence 3) [AD6FCCEB] (AR v2)
Copy OK

Track 11

Filename C:My DocumentsMy FLACSizzla – Freedom Cry (1998) [FLAC] {Xterminator, VP}11 – Till It Some More.wav

Peak level 99.9 %
Extraction speed 5.0 X
Track quality 100.0 %
Test CRC 5D2770E6
Copy CRC 5D2770E6
Accurately ripped (confidence 3) [A65478A2] (AR v2)
Copy OK

Track 12

Filename C:My DocumentsMy FLACSizzla – Freedom Cry (1998) [FLAC] {Xterminator, VP}12 – Rain Shower.wav

Peak level 99.9 %
Extraction speed 5.1 X
Track quality 100.0 %
Test CRC 638C301E
Copy CRC 638C301E
Accurately ripped (confidence 3) [312B4132] (AR v2)
Copy OK

Track 13

Filename C:My DocumentsMy FLACSizzla – Freedom Cry (1998) [FLAC] {Xterminator, VP}13 – Ancient Memories.wav

Peak level 99.9 %
Extraction speed 5.3 X
Track quality 100.0 %
Test CRC D72523B9
Copy CRC D72523B9
Accurately ripped (confidence 4) [9D266936] (AR v2)
Copy OK

Sizzla - Freedom Cry (1998) {Xterminator/VP}

All tracks accurately ripped

No errors occurred

End of status report

–– CUETools DB Plugin V2.1.6

[CTDB TOCID: p5tT1xoZRuJWWvuweMadyoYjpfI-] found
Submit result: p5tT1xoZRuJWWvuweMadyoYjpfI- has been confirmed
Track | CTDB Status
1 | (5/5) Accurately ripped
2 | (5/5) Accurately ripped
3 | (5/5) Accurately ripped
4 | (5/5) Accurately ripped
5 | (5/5) Accurately ripped
6 | (5/5) Accurately ripped
7 | (5/5) Accurately ripped
8 | (5/5) Accurately ripped
9 | (5/5) Accurately ripped
10 | (5/5) Accurately ripped
11 | (5/5) Accurately ripped
12 | (5/5) Accurately ripped
13 | (5/5) Accurately ripped

==== Log checksum 61FD178F37328C47E90BE3981FEDEE962FC97DD1C7709C8E2DCF1F9DD7A59CBE ====

Sizzla - Freedom Cry (1998) {Xterminator/VP}

Sizzla – Freedom Cry (1998) {Xterminator/VP} Download, Warez, DDL, Free, Full Album, Torrent, Legal.

Download