Sizzla – Burning Up (1995) {Ras}

Download
Sizzla - Burning Up (1995) {Ras}

Sizzla – Burning Up (1995) {Ras}
EAC Rip | FLAC with CUE and log | scans | 271 mb
MP3 CBR 320kbps | RAR | 107 mb
Genre: reggae, dancehall, ragga

Burning Up is the 1995 debut album by Miguel Collins, better known as dancehall reggae artist Sizzla Kalonji, or simply as Sizzla. This was released on Ras.

Sizzla - Burning Up (1995) {Ras}

1. How Much (3:58)
2. Can’t Hurt The Mind (3:44)
3. The Poor (3:49)
4. Mother Of Nations (4:12)
5. Search Fi Hardcore (3:47)
6. Nah Give In (4:00)
7. You Are What You Are (3:51)
8. Gun Ting Don’t Pay (3:35)
9. Dis Gangstar (4:05)
10. We Want Love 4:03)
11. Dreams (4:19)
12. It’s Not Over (3:47)

Sizzla Kalonji-vocals
Leba Hibbert-backing vocals
Nicki Tucker-backing vocals
Dean Fraser-backing vocals-horns
Donald Dennis-bass, keyboards
Sly Dunbar-drums
Cat Coore-guitar
Shadow Man-toasting (track 12)

Produced by Philip "Fatis" Burrell

EAC Log
Exact Audio Copy V1.1 from 23. June 2015

EAC extraction logfile from 17. December 2016, 9:13

Sizzla / Burning Up

Used drive : TEAC DVD-ROM DV-28SW Adapter: 1 ID: 0

Read mode : Secure
Utilize accurate stream : Yes
Defeat audio cache : Yes
Make use of C2 pointers : No

Read offset correction : 6
Overread into Lead-In and Lead-Out : No
Fill up missing offset samples with silence : Yes
Delete leading and trailing silent blocks : No
Null samples used in CRC calculations : Yes
Used interface : Native Win32 interface for Win NT & 2000
Gap handling : Appended to previous track

Used output format : Internal WAV Routines
Sample format : 44.100 Hz; 16 Bit; Stereo

TOC of the extracted CD

Track | Start | Length | Start sector | End sector
––––––––––––––––––––––––––––-
1 | 0:00.00 | 3:58.71 | 0 | 17920
2 | 3:58.71 | 3:44.63 | 17921 | 34783
3 | 7:43.59 | 3:49.21 | 34784 | 51979
4 | 11:33.05 | 4:12.03 | 51980 | 70882
5 | 15:45.08 | 3:47.55 | 70883 | 87962
6 | 19:32.63 | 4:00.52 | 87963 | 106014
7 | 23:33.40 | 3:51.46 | 106015 | 123385
8 | 27:25.11 | 3:35.03 | 123386 | 139513
9 | 31:00.14 | 4:05.70 | 139514 | 157958
10 | 35:06.09 | 4:03.49 | 157959 | 176232
11 | 39:09.58 | 4:19.67 | 176233 | 195724
12 | 43:29.50 | 3:47.63 | 195725 | 212812

Track 1

Filename C:My DocumentsMy FLACSizzla – Burning Up (1995) [FLAC] {Ras}1 – How Much.wav

Pre-gap length 0:00:02.00

Peak level 95.6 %
Extraction speed 2.7 X
Track quality 100.0 %
Test CRC C3FA97B5
Copy CRC C3FA97B5
Cannot be verified as accurate (confidence 3) [2AAB8A07], AccurateRip returned [E4024B68] (AR v2)
Copy OK

Track 2

Filename C:My DocumentsMy FLACSizzla – Burning Up (1995) [FLAC] {Ras}2 – Can’t Hurt The Mind.wav

Pre-gap length 0:00:01.38

Peak level 99.8 %
Extraction speed 3.1 X
Track quality 100.0 %
Test CRC 8C1DFCCF
Copy CRC 8C1DFCCF
Cannot be verified as accurate (confidence 3) [1E059A0D], AccurateRip returned [8A12CB56] (AR v2)
Copy OK

Track 3

Filename C:My DocumentsMy FLACSizzla – Burning Up (1995) [FLAC] {Ras}3 – The Poor.wav

Pre-gap length 0:00:01.54

Peak level 85.6 %
Extraction speed 3.3 X
Track quality 100.0 %
Test CRC EEED9E38
Copy CRC EEED9E38
Cannot be verified as accurate (confidence 3) [516D9F42], AccurateRip returned [29A84834] (AR v2)
Copy OK

Track 4

Filename C:My DocumentsMy FLACSizzla – Burning Up (1995) [FLAC] {Ras}4 – Mothers Of Nations.wav

Pre-gap length 0:00:01.61

Peak level 99.8 %
Extraction speed 3.6 X
Track quality 100.0 %
Test CRC 9ABB62B1
Copy CRC 9ABB62B1
Cannot be verified as accurate (confidence 3) [AFCD90F2], AccurateRip returned [1B5C1498] (AR v2)
Copy OK

Track 5

Filename C:My DocumentsMy FLACSizzla – Burning Up (1995) [FLAC] {Ras}5 – Search Fi Hardcore.wav

Pre-gap length 0:00:01.41

Peak level 93.0 %
Extraction speed 3.2 X
Track quality 99.9 %
Test CRC B1FF99F4
Copy CRC B1FF99F4
Cannot be verified as accurate (confidence 3) [9B1199DD], AccurateRip returned [A4AF6781] (AR v2)
Copy OK

Track 6

Filename C:My DocumentsMy FLACSizzla – Burning Up (1995) [FLAC] {Ras}6 – Nah Give In.wav

Pre-gap length 0:00:01.60

Peak level 99.8 %
Extraction speed 3.4 X
Track quality 99.9 %
Test CRC 02138368
Copy CRC 02138368
Cannot be verified as accurate (confidence 3) [B1FC2E8B], AccurateRip returned [476D7C04] (AR v2)
Copy OK

Track 7

Filename C:My DocumentsMy FLACSizzla – Burning Up (1995) [FLAC] {Ras}7 – You Are What You Are.wav

Pre-gap length 0:00:01.44

Peak level 97.8 %
Extraction speed 4.2 X
Track quality 100.0 %
Test CRC D6CD10A4
Copy CRC D6CD10A4
Cannot be verified as accurate (confidence 3) [3FA506D5], AccurateRip returned [14C60477] (AR v2)
Copy OK

Track 8

Filename C:My DocumentsMy FLACSizzla – Burning Up (1995) [FLAC] {Ras}8 – Gun Ting Don’t Pay.wav

Pre-gap length 0:00:01.47

Peak level 80.1 %
Extraction speed 4.3 X
Track quality 100.0 %
Test CRC 1B4D087A
Copy CRC 1B4D087A
Cannot be verified as accurate (confidence 3) [EED0A786], AccurateRip returned [3B236522] (AR v2)
Copy OK

Track 9

Filename C:My DocumentsMy FLACSizzla – Burning Up (1995) [FLAC] {Ras}9 – Dis Gangstar.wav

Pre-gap length 0:00:01.43

Peak level 90.5 %
Extraction speed 4.6 X
Track quality 100.0 %
Test CRC 5672013B
Copy CRC 5672013B
Cannot be verified as accurate (confidence 3) [5EB04210], AccurateRip returned [7FBBBEE6] (AR v2)
Copy OK

Track 10

Filename C:My DocumentsMy FLACSizzla – Burning Up (1995) [FLAC] {Ras}10 – We Want Love.wav

Pre-gap length 0:00:01.45

Peak level 86.5 %
Extraction speed 3.9 X
Track quality 99.9 %
Test CRC C7EFD129
Copy CRC C7EFD129
Cannot be verified as accurate (confidence 3) [8F240C94], AccurateRip returned [24F67A51] (AR v2)
Copy OK

Track 11

Filename C:My DocumentsMy FLACSizzla – Burning Up (1995) [FLAC] {Ras}11 – Dreams.wav

Pre-gap length 0:00:01.58

Peak level 99.8 %
Extraction speed 4.5 X
Track quality 100.0 %
Test CRC A8891438
Copy CRC A8891438
Cannot be verified as accurate (confidence 3) [A766E20C], AccurateRip returned [A77A5630] (AR v2)
Copy OK

Track 12

Filename C:My DocumentsMy FLACSizzla – Burning Up (1995) [FLAC] {Ras}12 – It’s Not Over.wav

Pre-gap length 0:00:01.65

Peak level 99.8 %
Extraction speed 4.6 X
Track quality 100.0 %
Test CRC 48F3ACB0
Copy CRC 48F3ACB0
Cannot be verified as accurate (confidence 3) [1A67F647], AccurateRip returned [297C52A7] (AR v2)
Copy OK

No tracks could be verified as accurate
You may have a different pressing from the one(s) in the database

No errors occurred

End of status report

–– CUETools DB Plugin V2.1.6

[CTDB TOCID: qGLJvlpRTivQEywsQWZkGuikf8s-] found
Submit result: qGLJvlpRTivQEywsQWZkGuikf8s- has been confirmed
Track | CTDB Status
1 | (3/3) Accurately ripped
2 | (3/3) Accurately ripped
3 | (3/3) Accurately ripped
4 | (3/3) Accurately ripped
5 | (3/3) Accurately ripped
6 | (3/3) Accurately ripped
7 | (3/3) Accurately ripped
8 | (3/3) Accurately ripped
9 | (3/3) Accurately ripped
10 | (3/3) Accurately ripped
11 | (3/3) Accurately ripped
12 | (3/3) Accurately ripped

==== Log checksum A8BB4E09EF0307F8805B1C396BB8DD5EADB422FFF9447BB19634DE3AF479A0A7 ====

Sizzla - Burning Up (1995) {Ras}

Sizzla – Burning Up (1995) {Ras} Download, Warez, DDL, Free, Full Album, Torrent, Legal.

Download