Sizzla – Bobo Ashanti (2000) {Greensleeves} | ViralVideoPk

Daily Dose of Free Downloads

Sizzla – Bobo Ashanti (2000) {Greensleeves}

Download

Sizzla - Bobo Ashanti (2000) {Greensleeves}

Sizzla – Bobo Ashanti (2000) {Greensleeves}
EAC Rip | FLAC with CUE and log | scans | 327 mb
MP3 CBR 320kbps | RAR | 116 mb
Genre: reggae, dancehall, ragga

Bobo Ashanti is the 2000 album by Jamaican reggae singer Sizzla Kalonji, born Miguel Collins but known primarily and simply as Sizzla. This was released on the Greensleeves label and features such songs as "The World", "Grow U Locks", "Strength & Hope", and "Wicked Naw Go Prosper".

Sizzla - Bobo Ashanti (2000) {Greensleeves}

1. The World (4:36)
2. Courage (3:50)
3. Whether Or Not (3:45)
2. Courage (3:50)
4. Grow U Locks (3:24)
5. This Day (4:09)
6. Attack (3:33)
7. Glorify (3:54)
8. Wicked Naw Go Prosper (4:03)
9. Good Looking (3:28)
10. Do Good (3:49)
11. Strength & Hope (3:30)
12. Children Beware (3:35)
13. Must Rise (3:34)

All songs produced by Philip "Fatis" Burrell
Mastered by Kevin Metcalfe

Sizzla - Bobo Ashanti (2000) {Greensleeves}
EAC Log
Exact Audio Copy V1.1 from 23. June 2015

EAC extraction logfile from 19. December 2016, 14:23

Sizzla / Bobo Ashanti

Used drive : TEAC DVD-ROM DV-28SW Adapter: 1 ID: 0

Read mode : Secure
Utilize accurate stream : Yes
Defeat audio cache : Yes
Make use of C2 pointers : No

Read offset correction : 6
Overread into Lead-In and Lead-Out : No
Fill up missing offset samples with silence : Yes
Delete leading and trailing silent blocks : No
Null samples used in CRC calculations : Yes
Used interface : Native Win32 interface for Win NT & 2000
Gap handling : Appended to previous track

Used output format : Internal WAV Routines
Sample format : 44.100 Hz; 16 Bit; Stereo

TOC of the extracted CD

Track | Start | Length | Start sector | End sector
––––––––––––––––––––––––––––-
1 | 0:00.00 | 4:36.32 | 0 | 20731
2 | 4:36.32 | 3:50.28 | 20732 | 38009
3 | 8:26.60 | 3:45.02 | 38010 | 54886
4 | 12:11.62 | 3:24.23 | 54887 | 70209
5 | 15:36.10 | 4:09.65 | 70210 | 88949
6 | 19:46.00 | 3:33.60 | 88950 | 104984
7 | 23:19.60 | 3:54.35 | 104985 | 122569
8 | 27:14.20 | 4:03.62 | 122570 | 140856
9 | 31:18.07 | 3:28.50 | 140857 | 156506
10 | 34:46.57 | 3:49.55 | 156507 | 173736
11 | 38:36.37 | 3:30.28 | 173737 | 189514
12 | 42:06.65 | 3:35.52 | 189515 | 205691
13 | 45:42.42 | 3:34.13 | 205692 | 221754

Track 1

Filename C:My DocumentsMy FLACSizzla – Bobo Ashanti (2000) [FLAC] {Greensleeves}1 – The World.wav

Pre-gap length 0:00:02.00

Peak level 97.9 %
Extraction speed 1.1 X
Track quality 100.0 %
Test CRC 4D63676E
Copy CRC 4D63676E
Accurately ripped (confidence 6) [DEA4317E] (AR v2)
Copy OK

Track 2

Filename C:My DocumentsMy FLACSizzla – Bobo Ashanti (2000) [FLAC] {Greensleeves}2 – Courage.wav

Pre-gap length 0:00:00.17

Peak level 97.9 %
Extraction speed 0.9 X
Track quality 99.9 %
Test CRC E6B94AC0
Copy CRC E6B94AC0
Accurately ripped (confidence 6) [9B05D7F2] (AR v2)
Copy OK

Track 3

Filename C:My DocumentsMy FLACSizzla – Bobo Ashanti (2000) [FLAC] {Greensleeves}3 – Whether Or Not.wav

Pre-gap length 0:00:01.43

Peak level 97.9 %
Extraction speed 1.0 X
Track quality 100.0 %
Test CRC 5E073830
Copy CRC 5E073830
Accurately ripped (confidence 6) [4361A584] (AR v2)
Copy OK

Track 4

Filename C:My DocumentsMy FLACSizzla – Bobo Ashanti (2000) [FLAC] {Greensleeves}4 – Grow U Locks.wav

Pre-gap length 0:00:00.62

Peak level 97.9 %
Extraction speed 1.0 X
Track quality 100.0 %
Test CRC 89CC0A53
Copy CRC 89CC0A53
Accurately ripped (confidence 6) [49C43343] (AR v2)
Copy OK

Track 5

Filename C:My DocumentsMy FLACSizzla – Bobo Ashanti (2000) [FLAC] {Greensleeves}5 – This Day.wav

Pre-gap length 0:00:01.05

Peak level 97.9 %
Extraction speed 1.3 X
Track quality 100.0 %
Test CRC C3BA6878
Copy CRC C3BA6878
Accurately ripped (confidence 6) [2A354C14] (AR v2)
Copy OK

Track 6

Filename C:My DocumentsMy FLACSizzla – Bobo Ashanti (2000) [FLAC] {Greensleeves}6 – Attack.wav

Pre-gap length 0:00:01.33

Peak level 97.9 %
Extraction speed 1.1 X
Track quality 99.9 %
Test CRC ABD69781
Copy CRC ABD69781
Accurately ripped (confidence 6) [52D7D897] (AR v2)
Copy OK

Track 7

Filename C:My DocumentsMy FLACSizzla – Bobo Ashanti (2000) [FLAC] {Greensleeves}7 – Glorify.wav

Pre-gap length 0:00:01.03

Peak level 97.9 %
Extraction speed 1.2 X
Track quality 100.0 %
Test CRC F037B9A7
Copy CRC F037B9A7
Accurately ripped (confidence 6) [DB873B5B] (AR v2)
Copy OK

Track 8

Filename C:My DocumentsMy FLACSizzla – Bobo Ashanti (2000) [FLAC] {Greensleeves}8 – Wicked Naw Go Prosper.wav

Pre-gap length 0:00:01.13

Peak level 97.9 %
Extraction speed 0.7 X
Track quality 99.9 %
Test CRC E24049FF
Copy CRC E24049FF
Accurately ripped (confidence 6) [66372242] (AR v2)
Copy OK

Track 9

Filename C:My DocumentsMy FLACSizzla – Bobo Ashanti (2000) [FLAC] {Greensleeves}9 – Good Looking.wav

Pre-gap length 0:00:00.70

Peak level 97.9 %
Extraction speed 0.4 X
Track quality 100.0 %
Test CRC 1FC02356
Copy CRC 1FC02356
Accurately ripped (confidence 6) [7FB8BD6E] (AR v2)
Copy OK

Track 10

Filename C:My DocumentsMy FLACSizzla – Bobo Ashanti (2000) [FLAC] {Greensleeves}10 – Do Good.wav

Pre-gap length 0:00:01.25

Peak level 97.9 %
Extraction speed 1.0 X
Track quality 99.9 %
Test CRC 7C2E155F
Copy CRC 7C2E155F
Accurately ripped (confidence 6) [06972DE3] (AR v2)
Copy OK

Track 11

Filename C:My DocumentsMy FLACSizzla – Bobo Ashanti (2000) [FLAC] {Greensleeves}11 – Strength And Hope.wav

Pre-gap length 0:00:00.62

Peak level 97.9 %
Extraction speed 1.7 X
Track quality 100.0 %
Test CRC 89F40441
Copy CRC 89F40441
Accurately ripped (confidence 6) [F9DA755F] (AR v2)
Copy OK

Track 12

Filename C:My DocumentsMy FLACSizzla – Bobo Ashanti (2000) [FLAC] {Greensleeves}12 – Children Beware.wav

Pre-gap length 0:00:01.33

Peak level 97.9 %
Extraction speed 2.1 X
Track quality 100.0 %
Test CRC 976C4807
Copy CRC 976C4807
Accurately ripped (confidence 6) [09427FED] (AR v2)
Copy OK

Track 13

Filename C:My DocumentsMy FLACSizzla – Bobo Ashanti (2000) [FLAC] {Greensleeves}13 – Must Rise.wav

Pre-gap length 0:00:01.30

Peak level 97.9 %
Extraction speed 2.1 X
Track quality 100.0 %
Test CRC 2EC13C91
Copy CRC 2EC13C91
Accurately ripped (confidence 6) [2B730E0B] (AR v2)
Copy OK

All tracks accurately ripped

No errors occurred

End of status report

–– CUETools DB Plugin V2.1.6

[CTDB TOCID: yCg5ojiqsedkelbOMD9yD9ZUFmE-] found
Submit result: yCg5ojiqsedkelbOMD9yD9ZUFmE- has been confirmed
Track | CTDB Status
1 | (10/10) Accurately ripped
2 | (10/10) Accurately ripped
3 | (10/10) Accurately ripped
4 | (10/10) Accurately ripped
5 | (10/10) Accurately ripped
6 | (10/10) Accurately ripped
7 | (10/10) Accurately ripped
8 | (10/10) Accurately ripped
9 | (10/10) Accurately ripped
10 | (10/10) Accurately ripped
11 | (10/10) Accurately ripped
12 | ( 9/10) Accurately ripped
13 | ( 8/10) Accurately ripped

==== Log checksum 1877F95FFEACD08C90A1B503F7869713FD652D8554CE044AB5466339A699F2E2 ====

Sizzla - Bobo Ashanti (2000) {Greensleeves}

Sizzla – Bobo Ashanti (2000) {Greensleeves} Download, Warez, DDL, Free, Full Album, Torrent, Legal.

Download


  • Recent Posts

  • Recent Tags