Sizzla – Blaze Up The Chalwa (2002) {Charm/King Of Kings/Jet Star} | ViralVideoPk

Daily Dose of Free Downloads

Sizzla – Blaze Up The Chalwa (2002) {Charm/King Of Kings/Jet Star}

Download

Sizzla - Blaze Up The Chalwa (2002) {Charm/King Of Kings/Jet Star}

Sizzla – Blaze Up The Chalwa (2002) {Charm/King Of Kings/Jet Star}
EAC Rip | FLAC with CUE and log | scans | 382 mb
MP3 CBR 320kbps | RAR | 131 mb
Genre: reggae, dancehall, ragga

Blaze Up The Chalwa is the 2002 album by Jamaican reggae singer Sizzla Kalonji, better known as Sizzla. This release versions a wide range of producers opposed to other albums that have a single producer or a group of two. This is a three-way release between the Charm, King Of Kings, and Jet Star labels.

Sizzla - Blaze Up The Chalwa (2002) {Charm/King Of Kings/Jet Star}

1. What’s Up (3:57)
2. It’s All Yours (3:28)
3. Mama Africa (3:33)
4. Gunshot (3:17)
5. Dat Dem Love (2:34)
6. Give It To Dem (3:46)
7. Show Us The Way (3:28)
8. Do What Jah Say (2:28)
9. Standing Ovation (3:42)
10. Scream And Shout (3:22)
11. Juvenile (3:26)
12. Legendary (3:49)
13. Trample (2:30)
14. Trod On (4:05)
15. Fear No Foe (3:06)
16. Karate (3:01)
17. Present (3:02)

Tracks 1 & 12 produced by Donald "Tixie" Dixon
Track 2 produced by Garfield Hamilton & Troy McLean
Tracks 3, 8, 10 & 16 produced by Cordel "Skatta" Burrell
Tracks 4 & 6 produced by Cecile Charlton & Cordel "Skatta" Burrell
Tracks 5 & 13 produced by Marlon Cooke
Tracks 7, 11 & 14 produced by Colin Levy
Track 8 produced by Devon Wheatley
Tracks 15 & 17 produced by Dillon Reid

EAC Log
Exact Audio Copy V1.1 from 23. June 2015

EAC extraction logfile from 20. December 2016, 10:24

Sizzla / Blaze Up The Chalwa

Used drive : TEAC DVD-ROM DV-28SW Adapter: 1 ID: 0

Read mode : Secure
Utilize accurate stream : Yes
Defeat audio cache : Yes
Make use of C2 pointers : No

Read offset correction : 6
Overread into Lead-In and Lead-Out : No
Fill up missing offset samples with silence : Yes
Delete leading and trailing silent blocks : No
Null samples used in CRC calculations : Yes
Used interface : Native Win32 interface for Win NT & 2000
Gap handling : Appended to previous track

Used output format : Internal WAV Routines
Sample format : 44.100 Hz; 16 Bit; Stereo

TOC of the extracted CD

Track | Start | Length | Start sector | End sector
––––––––––––––––––––––––––––-
1 | 0:00.00 | 3:57.12 | 0 | 17786
2 | 3:57.12 | 3:28.55 | 17787 | 33441
3 | 7:25.67 | 3:33.35 | 33442 | 49451
4 | 10:59.27 | 3:17.63 | 49452 | 64289
5 | 14:17.15 | 2:34.35 | 64290 | 75874
6 | 16:51.50 | 3:46.10 | 75875 | 92834
7 | 20:37.60 | 3:28.45 | 92835 | 108479
8 | 24:06.30 | 2:28.45 | 108480 | 119624
9 | 26:35.00 | 3:42.67 | 119625 | 136341
10 | 30:17.67 | 3:22.65 | 136342 | 151556
11 | 33:40.57 | 3:26.68 | 151557 | 167074
12 | 37:07.50 | 3:49.05 | 167075 | 184254
13 | 40:56.55 | 2:30.54 | 184255 | 195558
14 | 43:27.34 | 4:05.16 | 195559 | 213949
15 | 47:32.50 | 3:06.65 | 213950 | 227964
16 | 50:39.40 | 3:01.37 | 227965 | 241576
17 | 53:41.02 | 3:02.25 | 241577 | 255251

Track 1

Filename C:My DocumentsMy FLACSizzla – Blaze Up The Chalwa (2002) [FLAC] {Charm, King Of Kings, Jet Star}1 – What’s Up.wav

Pre-gap length 0:00:02.00

Peak level 97.7 %
Extraction speed 1.8 X
Track quality 100.0 %
Test CRC 35D291B3
Copy CRC 35D291B3
Accurately ripped (confidence 1) [7DE80C98] (AR v2)
Copy OK

Track 2

Filename C:My DocumentsMy FLACSizzla – Blaze Up The Chalwa (2002) [FLAC] {Charm, King Of Kings, Jet Star}2 – It’s All Yours.wav

Pre-gap length 0:00:01.42

Peak level 98.8 %
Extraction speed 2.0 X
Track quality 100.0 %
Test CRC DA74CA36
Copy CRC DA74CA36
Accurately ripped (confidence 1) [2CBD3EC6] (AR v2)
Copy OK

Track 3

Filename C:My DocumentsMy FLACSizzla – Blaze Up The Chalwa (2002) [FLAC] {Charm, King Of Kings, Jet Star}3 – Mama Africa.wav

Pre-gap length 0:00:01.40

Peak level 98.8 %
Extraction speed 1.8 X
Track quality 99.9 %
Test CRC C0E78294
Copy CRC C0E78294
Accurately ripped (confidence 1) [93FC47E2] (AR v2)
Copy OK

Track 4

Filename C:My DocumentsMy FLACSizzla – Blaze Up The Chalwa (2002) [FLAC] {Charm, King Of Kings, Jet Star}4 – Gunshot.wav

Pre-gap length 0:00:01.42

Peak level 98.8 %
Extraction speed 2.0 X
Track quality 99.9 %
Test CRC EF1CE56A
Copy CRC EF1CE56A
Accurately ripped (confidence 1) [703929BB] (AR v2)
Copy OK

Track 5

Filename C:My DocumentsMy FLACSizzla – Blaze Up The Chalwa (2002) [FLAC] {Charm, King Of Kings, Jet Star}5 – Dat Dem Love.wav

Pre-gap length 0:00:01.43

Peak level 98.8 %
Extraction speed 2.2 X
Track quality 100.0 %
Test CRC E00EE171
Copy CRC E00EE171
Accurately ripped (confidence 1) [02E04818] (AR v2)
Copy OK

Track 6

Filename C:My DocumentsMy FLACSizzla – Blaze Up The Chalwa (2002) [FLAC] {Charm, King Of Kings, Jet Star}6 – Give It To Dem.wav

Pre-gap length 0:00:01.33

Peak level 97.7 %
Extraction speed 2.6 X
Track quality 100.0 %
Test CRC 8690A9EE
Copy CRC 8690A9EE
Accurately ripped (confidence 1) [8D96FA10] (AR v2)
Copy OK

Track 7

Filename C:My DocumentsMy FLACSizzla – Blaze Up The Chalwa (2002) [FLAC] {Charm, King Of Kings, Jet Star}7 – Show Us The Way.wav

Pre-gap length 0:00:01.43

Peak level 95.5 %
Extraction speed 2.5 X
Track quality 100.0 %
Test CRC 5C730D07
Copy CRC 5C730D07
Accurately ripped (confidence 1) [9BF69C10] (AR v2)
Copy OK

Track 8

Filename C:My DocumentsMy FLACSizzla – Blaze Up The Chalwa (2002) [FLAC] {Charm, King Of Kings, Jet Star}8 – Do What Jah Say.wav

Pre-gap length 0:00:01.05

Peak level 97.7 %
Extraction speed 2.5 X
Track quality 100.0 %
Test CRC 051A5103
Copy CRC 051A5103
Accurately ripped (confidence 1) [9ECB7477] (AR v2)
Copy OK

Track 9

Filename C:My DocumentsMy FLACSizzla – Blaze Up The Chalwa (2002) [FLAC] {Charm, King Of Kings, Jet Star}9 – Standing Ovation.wav

Pre-gap length 0:00:01.43

Peak level 91.2 %
Extraction speed 2.8 X
Track quality 100.0 %
Test CRC FCA052AD
Copy CRC FCA052AD
Accurately ripped (confidence 1) [AD4D4FE5] (AR v2)
Copy OK

Track 10

Filename C:My DocumentsMy FLACSizzla – Blaze Up The Chalwa (2002) [FLAC] {Charm, King Of Kings, Jet Star}10 – Scream And Shout.wav

Pre-gap length 0:00:01.43

Peak level 90.1 %
Extraction speed 2.5 X
Track quality 99.9 %
Test CRC 998D4BDF
Copy CRC 998D4BDF
Accurately ripped (confidence 1) [E08EF2E9] (AR v2)
Copy OK

Track 11

Filename C:My DocumentsMy FLACSizzla – Blaze Up The Chalwa (2002) [FLAC] {Charm, King Of Kings, Jet Star}11 – Juvenile.wav

Pre-gap length 0:00:01.42

Peak level 98.8 %
Extraction speed 2.9 X
Track quality 100.0 %
Test CRC AC7E33F2
Copy CRC AC7E33F2
Accurately ripped (confidence 1) [0D31046A] (AR v2)
Copy OK

Track 12

Filename C:My DocumentsMy FLACSizzla – Blaze Up The Chalwa (2002) [FLAC] {Charm, King Of Kings, Jet Star}12 – Legendary.wav

Pre-gap length 0:00:01.43

Peak level 98.8 %
Extraction speed 2.5 X
Track quality 99.9 %
Test CRC 61669D99
Copy CRC 61669D99
Accurately ripped (confidence 1) [10EACC15] (AR v2)
Copy OK

Track 13

Filename C:My DocumentsMy FLACSizzla – Blaze Up The Chalwa (2002) [FLAC] {Charm, King Of Kings, Jet Star}13 – Trample.wav

Pre-gap length 0:00:01.40

Peak level 98.8 %
Extraction speed 2.1 X
Track quality 99.9 %
Test CRC 0FF5B6FD
Copy CRC 0FF5B6FD
Accurately ripped (confidence 1) [A685B4E7] (AR v2)
Copy OK

Track 14

Filename C:My DocumentsMy FLACSizzla – Blaze Up The Chalwa (2002) [FLAC] {Charm, King Of Kings, Jet Star}14 – Trod On.wav

Pre-gap length 0:00:01.42

Peak level 98.8 %
Extraction speed 2.2 X
Track quality 100.0 %
Test CRC C1F98859
Copy CRC C1F98859
Accurately ripped (confidence 1) [DE35141E] (AR v2)
Copy OK

Track 15

Filename C:My DocumentsMy FLACSizzla – Blaze Up The Chalwa (2002) [FLAC] {Charm, King Of Kings, Jet Star}15 – Fear No Foe.wav

Pre-gap length 0:00:01.40

Peak level 95.5 %
Extraction speed 2.0 X
Track quality 99.9 %
Test CRC 6A5AE8AE
Copy CRC 6A5AE8AE
Accurately ripped (confidence 1) [D8339CD7] (AR v2)
Copy OK

Track 16

Filename C:My DocumentsMy FLACSizzla – Blaze Up The Chalwa (2002) [FLAC] {Charm, King Of Kings, Jet Star}16 – Karate.wav

Pre-gap length 0:00:01.43

Peak level 93.3 %
Extraction speed 1.6 X
Track quality 100.0 %
Test CRC D9134227
Copy CRC D9134227
Accurately ripped (confidence 1) [FC3DC5B7] (AR v2)
Copy OK

Track 17

Filename C:My DocumentsMy FLACSizzla – Blaze Up The Chalwa (2002) [FLAC] {Charm, King Of Kings, Jet Star}17 – Present.wav

Pre-gap length 0:00:01.43

Peak level 98.8 %
Extraction speed 1.3 X
Track quality 99.9 %
Test CRC 55536F7A
Copy CRC 55536F7A
Accurately ripped (confidence 1) [47868E57] (AR v2)
Copy OK

All tracks accurately ripped

No errors occurred

End of status report

–– CUETools DB Plugin V2.1.6

[CTDB TOCID: 8dzjhTmPIy4ltAlecQ8v.N5ttK8-] found
Submit result: 8dzjhTmPIy4ltAlecQ8v.N5ttK8- has been confirmed
Track | CTDB Status
1 | (1/1) Accurately ripped
2 | (1/1) Accurately ripped
3 | (1/1) Accurately ripped
4 | (1/1) Accurately ripped
5 | (1/1) Accurately ripped
6 | (1/1) Accurately ripped
7 | (1/1) Accurately ripped
8 | (1/1) Accurately ripped
9 | (1/1) Accurately ripped
10 | (1/1) Accurately ripped
11 | (1/1) Accurately ripped
12 | (1/1) Accurately ripped
13 | (1/1) Accurately ripped
14 | (1/1) Accurately ripped
15 | (1/1) Accurately ripped
16 | (1/1) Accurately ripped
17 | (1/1) Accurately ripped

==== Log checksum DE4C7C2E7AC97BC5A9C07F5A23145B88F3FA76953DBEBA224FBE12510701E781 ====

Sizzla - Blaze Up The Chalwa (2002) {Charm/King Of Kings/Jet Star}

Sizzla – Blaze Up The Chalwa (2002) {Charm/King Of Kings/Jet Star} Download, Warez, DDL, Free, Full Album, Torrent, Legal.

Download


  • Recent Posts

  • Recent Tags