Sizzla – Black Woman & Child (1997) {Brickwall} | ViralVideoPk

Daily Dose of Free Downloads

Sizzla – Black Woman & Child (1997) {Brickwall}

Download

Sizzla - Black Woman & Child (1997) {Brickwall}

Sizzla – Black Woman & Child (1997) {Brickwall}
EAC Rip | FLAC with CUE and log | scans | 321 mb
MP3 CBR 320kbps | RAR | 131 mb
Genre: reggae, dancehall, ragga

Black Woman & Child is the second album by Jamaican artist Sizzla Kalonji, or better known simply under his mononym, Sizzla. Released by Brickwall Records, this was quickly followed up a month later with Praise Ye Jah so some critics chose to shine the spotlight on either or album in 1997.

Sizzla - Black Woman & Child (1997) {Brickwall}

1. Give Them A Ride
2. Love Is Divine
3. Make It Secure
4. Blackwoman & Child
5. Guide Over Us
6. Hard Ground
7. One Away
8. Oh What A Joy
9. Babylon A Use Dem Brain
10. Princess Black
11. No Time To Gaze
12. More Guidance
13. Mi Lord
14. Give Dem A Ride (Remix)
15. To Much To Bear

Produced, arranged and engineered by Bobby Digital Dixon
Assistant engineers: M. Nugent, S. Stewart, Bucky & L.P. Pinnock

Sizzla - Black Woman & Child (1997) {Brickwall}
EAC Log
Exact Audio Copy V1.1 from 23. June 2015

EAC extraction logfile from 17. December 2016, 10:54

Sizzla / Black Woman & Child

Used drive : TEAC DVD-ROM DV-28SW Adapter: 1 ID: 0

Read mode : Secure
Utilize accurate stream : Yes
Defeat audio cache : Yes
Make use of C2 pointers : No

Read offset correction : 6
Overread into Lead-In and Lead-Out : No
Fill up missing offset samples with silence : Yes
Delete leading and trailing silent blocks : No
Null samples used in CRC calculations : Yes
Used interface : Native Win32 interface for Win NT & 2000
Gap handling : Appended to previous track

Used output format : Internal WAV Routines
Sample format : 44.100 Hz; 16 Bit; Stereo

TOC of the extracted CD

Track | Start | Length | Start sector | End sector
––––––––––––––––––––––––––––-
1 | 0:00.00 | 3:30.32 | 0 | 15781
2 | 3:30.32 | 3:49.15 | 15782 | 32971
3 | 7:19.47 | 3:42.05 | 32972 | 49626
4 | 11:01.52 | 3:53.08 | 49627 | 67109
5 | 14:54.60 | 3:41.15 | 67110 | 83699
6 | 18:36.00 | 3:41.37 | 83700 | 100311
7 | 22:17.37 | 4:00.73 | 100312 | 118384
8 | 26:18.35 | 4:01.60 | 118385 | 136519
9 | 30:20.20 | 3:55.22 | 136520 | 154166
10 | 34:15.42 | 4:38.10 | 154167 | 175026
11 | 38:53.52 | 3:46.68 | 175027 | 192044
12 | 42:40.45 | 3:48.67 | 192045 | 209211
13 | 46:29.37 | 3:54.45 | 209212 | 226806
14 | 50:24.07 | 3:37.33 | 226807 | 243114
15 | 54:01.40 | 3:34.15 | 243115 | 259179

Track 1

Filename C:My DocumentsMy FLACSizzla – Black Woman & Child (1997) [FLAC] {Brickwall}1 – Give Them A Ride.wav

Pre-gap length 0:00:02.00

Peak level 89.9 %
Extraction speed 2.7 X
Track quality 100.0 %
Test CRC E8153048
Copy CRC E8153048
Accurately ripped (confidence 2) [167BA0B7] (AR v1)
Copy OK

Track 2

Filename C:My DocumentsMy FLACSizzla – Black Woman & Child (1997) [FLAC] {Brickwall}2 – Love Is Divine.wav

Pre-gap length 0:00:02.37

Peak level 100.0 %
Extraction speed 2.6 X
Track quality 100.0 %
Test CRC 9D104236
Copy CRC 9D104236
Accurately ripped (confidence 2) [1262A329] (AR v1)
Copy OK

Track 3

Filename C:My DocumentsMy FLACSizzla – Black Woman & Child (1997) [FLAC] {Brickwall}3 – Make It Secure.wav

Pre-gap length 0:00:01.37

Peak level 93.2 %
Extraction speed 2.7 X
Track quality 99.9 %
Test CRC DB8CD264
Copy CRC DB8CD264
Accurately ripped (confidence 2) [01C81462] (AR v1)
Copy OK

Track 4

Filename C:My DocumentsMy FLACSizzla – Black Woman & Child (1997) [FLAC] {Brickwall}4 – Black Woman & Child.wav

Peak level 100.0 %
Extraction speed 3.5 X
Track quality 100.0 %
Test CRC F9AA2BF0
Copy CRC F9AA2BF0
Accurately ripped (confidence 2) [70CCBE30] (AR v1)
Copy OK

Track 5

Filename C:My DocumentsMy FLACSizzla – Black Woman & Child (1997) [FLAC] {Brickwall}5 – Guide Over Us.wav

Pre-gap length 0:00:02.30

Peak level 100.0 %
Extraction speed 3.7 X
Track quality 100.0 %
Test CRC B925377E
Copy CRC B925377E
Accurately ripped (confidence 2) [33696BD9] (AR v1)
Copy OK

Track 6

Filename C:My DocumentsMy FLACSizzla – Black Woman & Child (1997) [FLAC] {Brickwall}6 – Hard Ground.wav

Pre-gap length 0:00:02.25

Peak level 77.7 %
Extraction speed 3.8 X
Track quality 100.0 %
Test CRC 8C7306E9
Copy CRC 8C7306E9
Accurately ripped (confidence 2) [EB810573] (AR v1)
Copy OK

Track 7

Filename C:My DocumentsMy FLACSizzla – Black Woman & Child (1997) [FLAC] {Brickwall}7 – One Way.wav

Pre-gap length 0:00:02.52

Peak level 100.0 %
Extraction speed 4.1 X
Track quality 100.0 %
Test CRC 1D0A4FBB
Copy CRC 1D0A4FBB
Accurately ripped (confidence 2) [325082E0] (AR v1)
Copy OK

Track 8

Filename C:My DocumentsMy FLACSizzla – Black Woman & Child (1997) [FLAC] {Brickwall}8 – Oh What A Joy.wav

Pre-gap length 0:00:01.43

Peak level 100.0 %
Extraction speed 4.2 X
Track quality 100.0 %
Test CRC 4126310C
Copy CRC 4126310C
Accurately ripped (confidence 2) [CC323181] (AR v1)
Copy OK

Track 9

Filename C:My DocumentsMy FLACSizzla – Black Woman & Child (1997) [FLAC] {Brickwall}9 – Babylon A Use Dem Brain.wav

Pre-gap length 0:00:02.63

Peak level 93.1 %
Extraction speed 4.5 X
Track quality 100.0 %
Test CRC AA3EB2F7
Copy CRC AA3EB2F7
Accurately ripped (confidence 2) [44093066] (AR v1)
Copy OK

Track 10

Filename C:My DocumentsMy FLACSizzla – Black Woman & Child (1997) [FLAC] {Brickwall}10 – Princess Black.wav

Pre-gap length 0:00:01.57

Peak level 100.0 %
Extraction speed 4.8 X
Track quality 100.0 %
Test CRC 0B65618A
Copy CRC 0B65618A
Accurately ripped (confidence 2) [4AF5E3E5] (AR v1)
Copy OK

Track 11

Filename C:My DocumentsMy FLACSizzla – Black Woman & Child (1997) [FLAC] {Brickwall}11 – No Time To Gaze.wav

Peak level 95.2 %
Extraction speed 4.2 X
Track quality 100.0 %
Test CRC 638B8B50
Copy CRC 638B8B50
Accurately ripped (confidence 2) [CB4630BE] (AR v1)
Copy OK

Track 12

Filename C:My DocumentsMy FLACSizzla – Black Woman & Child (1997) [FLAC] {Brickwall}12 – More Guidance.wav

Pre-gap length 0:00:03.70

Peak level 91.0 %
Extraction speed 4.0 X
Track quality 100.0 %
Test CRC C742AB8D
Copy CRC C742AB8D
Accurately ripped (confidence 2) [D39371D7] (AR v1)
Copy OK

Track 13

Filename C:My DocumentsMy FLACSizzla – Black Woman & Child (1997) [FLAC] {Brickwall}13 – Mi Lord.wav

Pre-gap length 0:00:02.07

Peak level 91.5 %
Extraction speed 4.9 X
Track quality 100.0 %
Test CRC 6F719D48
Copy CRC 6F719D48
Accurately ripped (confidence 2) [6C6A276E] (AR v1)
Copy OK

Track 14

Filename C:My DocumentsMy FLACSizzla – Black Woman & Child (1997) [FLAC] {Brickwall}14 – Give Them A Ride (Remix).wav

Pre-gap length 0:00:01.40

Peak level 100.0 %
Extraction speed 3.7 X
Track quality 99.9 %
Test CRC FFB71A84
Copy CRC FFB71A84
Accurately ripped (confidence 2) [4310691E] (AR v1)
Copy OK

Track 15

Filename C:My DocumentsMy FLACSizzla – Black Woman & Child (1997) [FLAC] {Brickwall}15 – Too Much To Bear.wav

Pre-gap length 0:00:01.53

Peak level 89.0 %
Extraction speed 4.2 X
Track quality 100.0 %
Test CRC 45B97105
Copy CRC 45B97105
Accurately ripped (confidence 2) [791B4153] (AR v1)
Copy OK

All tracks accurately ripped

No errors occurred

End of status report

–– CUETools DB Plugin V2.1.6

[CTDB TOCID: t63_sKmlLTAcfzDsfw_uYUWRcqg-] found
Submit result: t63_sKmlLTAcfzDsfw_uYUWRcqg- has been confirmed
Track | CTDB Status
1 | (1/1) Accurately ripped
2 | (1/1) Accurately ripped
3 | (1/1) Accurately ripped
4 | (1/1) Accurately ripped
5 | (1/1) Accurately ripped
6 | (1/1) Accurately ripped
7 | (1/1) Accurately ripped
8 | (1/1) Accurately ripped
9 | (1/1) Accurately ripped
10 | (1/1) Accurately ripped
11 | (1/1) Accurately ripped
12 | (1/1) Accurately ripped
13 | (1/1) Accurately ripped
14 | (1/1) Accurately ripped
15 | (1/1) Accurately ripped

==== Log checksum 8F4EBA2765FB36C363C6D9525DBD57A0D4AB882C7C20AA3024D06BCFA6FA311E ====

Sizzla - Black Woman & Child (1997) {Brickwall}

Sizzla – Black Woman & Child (1997) {Brickwall} Download, Warez, DDL, Free, Full Album, Torrent, Legal.

Tags:

  • sizzla black woman an child album torrent
Download


  • Recent Posts

  • Recent Tags