Sizzla & Anthony B – 2 Strong (1998) {Star Trail}

Download
Sizzla & Anthony B - 2 Strong (1998) {Star Trail}

Sizzla & Anthony B – 2 Strong (1998) {Star Trail}
EAC Rip | FLAC with CUE and log | scans | 336 mb
MP3 CBR 320kbps | RAR | 120 mb
Genre: reggae, dancehall, ragga

2 Strong is a 1998 collaboration compilation between Jamaican artists Sizzla Kalonji and Anthony B. Released through Star Trail Records, this was shown as being a Volume 1 but there were no other volumes after this. The CD features seven songs each from Sizzla and Anthony B, all produced by Richard Bell.

Sizzla & Anthony B - 2 Strong (1998) {Star Trail}

1. Sizzla – Food Of Thought
2. Anthony B – Damage (Remix)
3. Sizzla – Lovely Life
4. Anthony B – The Joy
5. Sizzla – Do Some Good
6. Anthony B – Shining Light
7. Sizzla – Holding Firm
8. Anthony B – Higher Heights
9. Sizzla – Live Yu Live
10. Anthony B – Watch Out
11. Sizzla – Wanting You
12. Anthony B – Musical Fire
13. Sizzla – Haunted & Nervous
14. Anthony B – Praise The Man

Produced by Richard Bell

EAC Log
Exact Audio Copy V1.1 from 23. June 2015

EAC extraction logfile from 18. December 2016, 8:37

Sizzla & Anthony B / 2 Strong

Used drive : TEAC DVD-ROM DV-28SW Adapter: 1 ID: 0

Read mode : Secure
Utilize accurate stream : Yes
Defeat audio cache : Yes
Make use of C2 pointers : No

Read offset correction : 6
Overread into Lead-In and Lead-Out : No
Fill up missing offset samples with silence : Yes
Delete leading and trailing silent blocks : No
Null samples used in CRC calculations : Yes
Used interface : Native Win32 interface for Win NT & 2000
Gap handling : Appended to previous track

Used output format : Internal WAV Routines
Sample format : 44.100 Hz; 16 Bit; Stereo

TOC of the extracted CD

Track | Start | Length | Start sector | End sector
––––––––––––––––––––––––––––-
1 | 0:00.01 | 3:47.16 | 1 | 17041
2 | 3:47.17 | 3:30.20 | 17042 | 32811
3 | 7:17.37 | 3:45.69 | 32812 | 49755
4 | 11:03.31 | 3:40.45 | 49756 | 66300
5 | 14:44.01 | 3:35.45 | 66301 | 82470
6 | 18:19.46 | 3:51.74 | 82471 | 99869
7 | 22:11.45 | 3:40.06 | 99870 | 116375
8 | 25:51.51 | 3:28.43 | 116376 | 132018
9 | 29:20.19 | 3:37.38 | 132019 | 148331
10 | 32:57.57 | 3:37.68 | 148332 | 164674
11 | 36:35.50 | 3:38.52 | 164675 | 181076
12 | 40:14.27 | 3:38.21 | 181077 | 197447
13 | 43:52.48 | 3:47.64 | 197448 | 214536
14 | 47:40.37 | 3:30.33 | 214537 | 230319

Track 1

Filename C:My DocumentsMy FLACSizzla & Anthony B – 2 Strong (1998) [FLAC] {Star Trail}1 – Sizzla – Food Of Thought.wav

Pre-gap length 0:00:02.01

Peak level 100.0 %
Extraction speed 1.7 X
Track quality 100.0 %
Test CRC 13E94D53
Copy CRC 13E94D53
Accurately ripped (confidence 3) [02925CBC] (AR v2)
Copy OK

Track 2

Filename C:My DocumentsMy FLACSizzla & Anthony B – 2 Strong (1998) [FLAC] {Star Trail}2 – Anthony B – Damage (Remix).wav

Peak level 100.0 %
Extraction speed 1.9 X
Track quality 100.0 %
Test CRC C8307C4B
Copy CRC C8307C4B
Accurately ripped (confidence 4) [A62C69A8] (AR v2)
Copy OK

Track 3

Filename C:My DocumentsMy FLACSizzla & Anthony B – 2 Strong (1998) [FLAC] {Star Trail}3 – Sizzla – Lovely Life.wav

Peak level 100.0 %
Extraction speed 2.0 X
Track quality 100.0 %
Test CRC 253D0B76
Copy CRC 253D0B76
Accurately ripped (confidence 3) [13E5F123] (AR v2)
Copy OK

Track 4

Filename C:My DocumentsMy FLACSizzla & Anthony B – 2 Strong (1998) [FLAC] {Star Trail}4 – Anthony B – The Joy.wav

Peak level 100.0 %
Extraction speed 2.2 X
Track quality 100.0 %
Test CRC 3F62D3AE
Copy CRC 3F62D3AE
Accurately ripped (confidence 3) [C09EEB39] (AR v2)
Copy OK

Track 5

Filename C:My DocumentsMy FLACSizzla & Anthony B – 2 Strong (1998) [FLAC] {Star Trail}5 – Sizzla – Do Some Good.wav

Peak level 100.0 %
Extraction speed 2.3 X
Track quality 100.0 %
Test CRC D46D560E
Copy CRC D46D560E
Accurately ripped (confidence 3) [230414DB] (AR v2)
Copy OK

Track 6

Filename C:My DocumentsMy FLACSizzla & Anthony B – 2 Strong (1998) [FLAC] {Star Trail}6 – Anthony B – Shining Light.wav

Peak level 100.0 %
Extraction speed 2.0 X
Track quality 100.0 %
Test CRC B88E2CEB
Copy CRC B88E2CEB
Accurately ripped (confidence 4) [BDF9F8BE] (AR v2)
Copy OK

Track 7

Filename C:My DocumentsMy FLACSizzla & Anthony B – 2 Strong (1998) [FLAC] {Star Trail}7 – Sizzla – Holding Firm.wav

Peak level 100.0 %
Extraction speed 1.8 X
Track quality 99.9 %
Test CRC D6DFC8E1
Copy CRC D6DFC8E1
Accurately ripped (confidence 3) [132BFE99] (AR v2)
Copy OK

Track 8

Filename C:My DocumentsMy FLACSizzla & Anthony B – 2 Strong (1998) [FLAC] {Star Trail}8 – Anthony B – Higher Heights.wav

Peak level 100.0 %
Extraction speed 2.0 X
Track quality 100.0 %
Test CRC 4EFED1E4
Copy CRC 4EFED1E4
Accurately ripped (confidence 3) [E82181A6] (AR v2)
Copy OK

Track 9

Filename C:My DocumentsMy FLACSizzla & Anthony B – 2 Strong (1998) [FLAC] {Star Trail}9 – Sizzla – Live Yu Live.wav

Peak level 100.0 %
Extraction speed 0.5 X
Track quality 100.0 %
Test CRC F871388F
Copy CRC F871388F
Accurately ripped (confidence 3) [DA926775] (AR v2)
Copy OK

Track 10

Filename C:My DocumentsMy FLACSizzla & Anthony B – 2 Strong (1998) [FLAC] {Star Trail}10 – Anthony B – Watch Out.wav

Peak level 100.0 %
Extraction speed 2.3 X
Track quality 100.0 %
Test CRC AB81EE2F
Copy CRC AB81EE2F
Accurately ripped (confidence 3) [8E7EBAE8] (AR v2)
Copy OK

Track 11

Filename C:My DocumentsMy FLACSizzla & Anthony B – 2 Strong (1998) [FLAC] {Star Trail}11 – Sizzla – Wanting You.wav

Peak level 100.0 %
Extraction speed 3.3 X
Track quality 100.0 %
Test CRC 3CBCE03D
Copy CRC 3CBCE03D
Accurately ripped (confidence 4) [9B4C504F] (AR v2)
Copy OK

Track 12

Filename C:My DocumentsMy FLACSizzla & Anthony B – 2 Strong (1998) [FLAC] {Star Trail}12 – Anthony B – Musical Fire.wav

Peak level 100.0 %
Extraction speed 3.0 X
Track quality 100.0 %
Test CRC A54C702C
Copy CRC A54C702C
Accurately ripped (confidence 3) [15F8ACB4] (AR v2)
Copy OK

Track 13

Filename C:My DocumentsMy FLACSizzla & Anthony B – 2 Strong (1998) [FLAC] {Star Trail}13 – Sizzla – Haunted & Nervous.wav

Peak level 100.0 %
Extraction speed 2.0 X
Track quality 100.0 %
Test CRC AE8F41ED
Copy CRC AE8F41ED
Accurately ripped (confidence 3) [EBE7B603] (AR v2)
Copy OK

Track 14

Filename C:My DocumentsMy FLACSizzla & Anthony B – 2 Strong (1998) [FLAC] {Star Trail}14 – Anthony B – Praise The Man.wav

Peak level 100.0 %
Extraction speed 3.4 X
Track quality 100.0 %
Test CRC 88E02D4B
Copy CRC 88E02D4B
Accurately ripped (confidence 4) [FCFF6574] (AR v2)
Copy OK

All tracks accurately ripped

No errors occurred

End of status report

–– CUETools DB Plugin V2.1.6

[CTDB TOCID: dsvHplfkfKSZqB.nJwOSkq1UImA-] found
Submit result: dsvHplfkfKSZqB.nJwOSkq1UImA- has been confirmed
Track | CTDB Status
1 | (3/3) Accurately ripped
2 | (3/3) Accurately ripped
3 | (3/3) Accurately ripped
4 | (3/3) Accurately ripped
5 | (3/3) Accurately ripped
6 | (3/3) Accurately ripped
7 | (3/3) Accurately ripped
8 | (3/3) Accurately ripped
9 | (3/3) Accurately ripped
10 | (3/3) Accurately ripped
11 | (3/3) Accurately ripped
12 | (3/3) Accurately ripped
13 | (3/3) Accurately ripped
14 | (3/3) Accurately ripped

==== Log checksum E4E5F1BC9D116AE86606530EF15D926CE0E6D303643E382CE8DC0DD44648C537 ====

Sizzla & Anthony B - 2 Strong (1998) {Star Trail}

Sizzla & Anthony B – 2 Strong (1998) {Star Trail} Download, Warez, DDL, Free, Full Album, Torrent, Legal.

Download