Silje Nergaard – For You a Thousand Times (2017)

Download
Silje Nergaard - For You a Thousand Times (2017)

Silje Nergaard – For You a Thousand Times
Vocal Jazz | WEB FLAC (tracks) & d. booklet | 63:08 min | 381 MB
Label: Okeh | Tracks: 14 | Rls.date: 2017

Silje Nergaard is without question Norway’s all-time best selling Jazz artist worldwide with 15 albums released over a career that spans 20 years. From the first moment she entered the music scene at the age of 16, Silje established herself as one of Norway’s strongest songwriters.

In her album ‘For You A Thousand Times’, Silje Nergaard presents short stories about the unique power arising from memories. Just like music, memories are capable of connecting people regardless of time and space. In every song Nergaard portrays people or scenes who inspired her and describes past encounters or personal experiences from images in her heart.

One of the most intimate moments of the album can be found in the song ‘Hush Little Bird’, a lullaby for her Ethiopian adopted son Jonah, who babbles in the language from his earlier life just before falling asleep. His words can be heard as an intro to the song. Nergaard also used the recording of an African coconut seller advertising his produce in the summer ballad ‘Cocco Bello’. “This is a meeting between two very different cultures but for a brief moment they melt into one”.

With ‘For You A Thousand Times’ Nergaard enters into a more electric world. Her rousing melodies are placed into subtly arranged soundscapes made of warm analogue keyboards, electric bass, funky drums and African percussion. A long musical journey through landscapes spanning from tropical heatwaves to the winter nights of Norway.

TRACKLIST
01. It’s Gonna Rain 04:23
02. For You a Thousand Times 05:08
03. Breathe 04:49
04. Cocco Bello 05:50
05. Amy 03:25
06. Sleepwalking 04:19
07. Run Run Run 04:32
08. Hush Little Bird 05:25
09. Jaded Childhood Dreams 03:39
10. Winter Moon 04:53
11. Cocco Bello (Radio Edit) 04:06
12. Breathe (Radio Edit) 03:50
13. For You a Thousand Times (Radio Edit) 04:46
14. It’s Gonna Rain (Radio Edit) 04:04

PERSONNEL
Silje Nergaard, vocal
Andreas Ulvo, keyboards
Audun Erlien, bass
Sidiki Camara, percussion
Wetle Holte, drums, percussion
Mathias Eick, trumpet
Håkon Aase, violin
Håkon Korn-stad, saxophone

auCDtect
PERFORMER: auCDtect Task Manager, ver. 1.6.0 RC1 build 1.6.0.1
Copyright © 2008-2010 y-soft. All rights reserved

ANALYZER: auCDtect: CD records authenticity detector, version 0.8.2
Copyright © 2004 Oleg Berngardt. All rights reserved.
Copyright © 2004 Alexander Djourik. All rights reserved.

FILE: 14. It’s Gonna Rain (Radio Edit).flac
Size: 28851525 Hash: 9A1D5A1B95B1E4E2126877466CFA6DCD Accuracy: -m0
Conclusion: CDDA 100%
Signature: 0DD383CB152CEE86EF3D0C15A281EA9621C8EE34
FILE: 13. For You a Thousand Times (Radio Edit).flac
Size: 28336288 Hash: D7AA87BFBECD5330313D7D803D19CA46 Accuracy: -m0
Conclusion: CDDA 99%
Signature: E5270D969FBBC42A9CB6410D67B3AADAF91596FF
FILE: 12. Breathe (Radio Edit).flac
Size: 25552242 Hash: 1DBEEEF3F5708FF96C2CADC1984FDA79 Accuracy: -m0
Conclusion: CDDA 100%
Signature: FE21C05B8B35E3BEE95A9BF890363670EDDA4320
FILE: 11. Cocco Bello (Radio Edit).flac
Size: 26500965 Hash: A14CF559893FA3A12FFCC7E5D671F649 Accuracy: -m0
Conclusion: CDDA 100%
Signature: 8E8825B0A0540D15C227DEC0C7D8D25998699833
FILE: 10. Winter Moon.flac
Size: 28705237 Hash: 1DA324DEA15DA1A219CF49B7B6BCA63A Accuracy: -m0
Conclusion: CDDA 100%
Signature: D4CBCAB0D4FD33AD3CA6575CA6C8DAA7B6A6A2C7
FILE: 09. Jaded Childhood Dreams.flac
Size: 22338590 Hash: F99A58B91C8581F3923D28F84C06C947 Accuracy: -m0
Conclusion: CDDA 100%
Signature: E0BB292421D9263CD8298A92E2B3E804B91BC21F
FILE: 08. Hush Little Bird.flac
Size: 31564937 Hash: 5F363CCEFF7B1DBEB2ACE264650FE84F Accuracy: -m0
Conclusion: CDDA 99%
Signature: 27DEC8C06FDE87954BD3FD470FA72AA3D4377CA9
FILE: 07. Run Run Run.flac
Size: 31481059 Hash: CF6AEE3385C1A4FB419DB873159EEA2E Accuracy: -m0
Conclusion: CDDA 99%
Signature: FE4AA2FC6FEA79C22CC3B2B531D5D1AE33F9DD4B
FILE: 06. Sleepwalking.flac
Size: 25750091 Hash: 2DD6DFEC79626B31BDFEF001A502AAB7 Accuracy: -m0
Conclusion: CDDA 99%
Signature: 8264E53E3CDDA7EC68B6F61F5A6EE09116AD4ED8
FILE: 05. Amy.flac
Size: 19834778 Hash: CF19E43B918C43329C0C470E2BC6CD0D Accuracy: -m0
Conclusion: CDDA 100%
Signature: 6A9E187B01CE0AF579EB00BF1B689971C10D7DF7
FILE: 04. Cocco Bello.flac
Size: 36467316 Hash: E6088143DDE77945FEF902C184199653 Accuracy: -m0
Conclusion: CDDA 100%
Signature: E3D94B5821FD04AE2BCBE1BFA526955F41E35B1F
FILE: 03. Breathe.flac
Size: 31042083 Hash: 0E74E016B755023BD6C8FB84AA74A13C Accuracy: -m0
Conclusion: CDDA 100%
Signature: 994A01E79EE103FB56E0C09FBF63AD253B8A0B90
FILE: 02. For You a Thousand Times.flac
Size: 29863704 Hash: A20D7DFA2D43EBF763EA309C30F7B393 Accuracy: -m0
Conclusion: CDDA 100%
Signature: C96A50742580EE8322133C2E4B91E5E5398B75C8
FILE: 01. It’s Gonna Rain.flac
Size: 30826812 Hash: B404F4B647DEF3E55A36FE49BB11A742 Accuracy: -m0
Conclusion: CDDA 100%
Signature: 52297B782D0609438E9759752666F44A94FC0E8B

DR
foobar2000 1.3.7 / Dynamic Range Meter 1.1.1
log date: 2017-10-13 10:43:17

––––––––––––––––––––––––––––––––––––––––
Analyzed: Silje Nergaard / For You a Thousand Times
––––––––––––––––––––––––––––––––––––––––

DR Peak RMS Duration Track
––––––––––––––––––––––––––––––––––––––––
DR7 0.00 dB -9.25 dB 4:24 01-It’s Gonna Rain
DR7 -0.31 dB -10.42 dB 5:08 02-For You a Thousand Times
DR6 -0.32 dB -8.32 dB 4:50 03-Breathe
DR7 -0.29 dB -9.05 dB 5:50 04-Cocco Bello
DR9 -0.46 dB -11.34 dB 3:26 05-Amy
DR9 0.00 dB -10.92 dB 4:20 06-Sleepwalking
DR8 0.00 dB -9.69 dB 4:33 07-Run Run Run
DR7 -0.36 dB -9.90 dB 5:25 08-Hush Little Bird
DR7 -0.15 dB -9.62 dB 3:40 09-Jaded Childhood Dreams
DR8 -0.42 dB -10.10 dB 4:54 10-Winter Moon
DR7 -0.29 dB -8.64 dB 4:06 11-Cocco Bello (Radio Edit)
DR6 -0.30 dB -7.29 dB 3:51 12-Breathe (Radio Edit)
DR7 -0.36 dB -10.05 dB 4:46 13-For You a Thousand Times (Radio Edit)
DR7 0.00 dB -9.16 dB 4:04 14-It’s Gonna Rain (Radio Edit)
––––––––––––––––––––––––––––––––––––––––

Number of tracks: 14
Official DR value: DR7

Samplerate: 44100 Hz
Channels: 2
Bits per sample: 16
Bitrate: 938 kbps
Codec: FLAC
================================================================================

Thanks to the Original customer.

Silje Nergaard – For You a Thousand Times (2017) Download, Warez, DDL, Free, Full Album, Torrent, Legal.

Download