Sigmund Snopek III – Roy Rogers Meets Albert Einstein (1982) [Reissue 2010] | ViralVideoPk

Daily Dose of Free Downloads

Sigmund Snopek III – Roy Rogers Meets Albert Einstein (1982) [Reissue 2010]

Download

Sigmund Snopek III - Roy Rogers Meets Albert Einstein (1982) [Reissue 2010]

Sigmund Snopek III – Roy Rogers Meets Albert Einstein (1982) [Reissue 2010]
EAC Rip | FLAC (image+.cue+log) – 330 MB | MP3 CBR 320 kbps (LAME 3.93) – 118 MB | Covers (3 MB) included
Genre: Progressive Rock | RAR 3% Rec. | Label: MALS (MALS 353)

Sigmund Snopek III is the multi-instrumentalist from Milwaukee. After two fruitless cracks at the mainstream market with his band Snopek, Sigmund Snopek returns to his eclectic roots with this fusion of prog rock, jazz, and scattered musical turns that defined his pre-Thinking out Loud period. This album consists of just three tracks, the opening one being the 29-minute, 12-part, predominantly instrumental "Ride in the Dark," which embodies Snopek’s entire career repertoire. At various stages of this piece, influences as diverse as Gentle Giant, Jeff Beck, and Steve Hackett-era Genesis surface. Sigmund Snopek’s keyboard style combines the electronic noodling of Michael Hoenig and the wizardry of Patrick Moraz, but the commanding guitar of Byron Wiemann drives this lengthy track as much as Snopek’s efforts. "Roy Rogers Meets Albert Einstein" is a conglomerate of jazz-rock fusion, improvisational jazz, extended rock jams, and experimentation that even breaks into an unexpected hoedown depicting the Roy Rogers portion of the piece. The third track, "Song Sing to the Doldrum King," is a seven-minute, neo-classical performance number for flute only featuring the playing of guest musician Llena de la Madrugada, who was enlisted to play the difficult piece even though Snopek himself is a formidable flutist. This is clearly the most challenging and progressive album by this artist since the mid-’70s.

Progarchives

Tracklist:

Ride In The Dark
01. Zully’s Truck
02. Dimension Snatch
03. Transformatia
04. Backpocket Fugue
05. Song And Word Dream
06. Robotiko
07. OneBeamToColorsEndless
08. Meanwhile In LA
09. The Mountains
10. Death Valley Vortex
11. Worldless
12. Beam Bang

13. Roy Rogers Meets Albert Einstein
14. Song Sing to the Doldrum King

Total time: 48:51

EAC log
Exact Audio Copy V0.99 prebeta 5 from 4. May 2009

Отчёт EAC об извлечении, выполненном 21. апреля 2011, 11:33

Sigmund Snopek III / Roy Rogers Meets Albert Einstein

Дисковод: ASUS DRW-24B1ST Adapter: 4 ID: 0

Режим чтения : Достоверность
Использование точного потока : Да
Отключение кэша аудио : Да
Использование указателей C2 : Нет

Коррекция смещения при чтении : 6
Способность читать области Lead-in и Lead-out : Нет
Заполнение пропущенных сэмплов тишиной : Да
Удаление блоков с тишиной в начале и конце : Нет
При вычислениях CRC использовались нулевые сэмплы : Да
Интерфейс : Встроенный Win32-интерфейс для Win NT/2000

Выходной формат : Внутренние WAV-операции
Формат сэмплов : 44.100 Гц; 16 бит; стерео

TOC извлечённого CD

Трек | Старт | Длительность | Начальный сектор | Конечный сектор
––––––––––––––––––––––––––––––––––-
1 | 0:00.00 | 2:39.70 | 0 | 11994
2 | 2:39.70 | 0:23.70 | 11995 | 13789
3 | 3:03.65 | 2:51.25 | 13790 | 26639
4 | 5:55.15 | 8:08.62 | 26640 | 63301
5 | 14:04.02 | 2:05.08 | 63302 | 72684
6 | 16:09.10 | 3:08.30 | 72685 | 86814
7 | 19:17.40 | 0:35.52 | 86815 | 89491
8 | 19:53.17 | 2:29.63 | 89492 | 100729
9 | 22:23.05 | 1:14.62 | 100730 | 106341
10 | 23:37.67 | 2:13.63 | 106342 | 116379
11 | 25:51.55 | 2:45.20 | 116380 | 128774
12 | 28:37.00 | 0:32.55 | 128775 | 131229
13 | 29:09.55 | 12:50.57 | 131230 | 189036
14 | 42:00.37 | 6:50.67 | 189037 | 219853

Характеристики диапазона извлечения и сообщения об ошибках

Выбранный диапазон

Имя файла D:1 – Торрент НЕ ТРОГАТЬ2 – мои Раздачи20114 – Апрель1 – ЫSigmund Snopek III – Roy Rogers Meets Albert Einstein.wav

Пиковый уровень 99.8 %
Качество диапазона 100.0 %
CRC копии ACB5F1C7
Копирование… OK

Ошибок не произошло

AccurateRip: сводка

Трек 1 нет в базе данных
Трек 2 нет в базе данных
Трек 3 нет в базе данных
Трек 4 нет в базе данных
Трек 5 нет в базе данных
Трек 6 нет в базе данных
Трек 7 нет в базе данных
Трек 8 нет в базе данных
Трек 9 нет в базе данных
Трек 10 нет в базе данных
Трек 11 нет в базе данных
Трек 12 нет в базе данных
Трек 13 нет в базе данных
Трек 14 нет в базе данных

Ни одного трека нет в базе AccurateRip

Конец отчёта

[CUETools log; Date: 26.08.2016 16:53:34; Version: 2.1.4]
[CTDB TOCID: .YoSPLsBfNAKiC_srQUYpDA45N0-] found.
Track | CTDB Status
1 | (1/1) Accurately ripped
2 | (1/1) Accurately ripped
3 | (1/1) Accurately ripped
4 | (1/1) Accurately ripped
5 | (1/1) Accurately ripped
6 | (1/1) Accurately ripped
7 | (1/1) Accurately ripped
8 | (1/1) Accurately ripped
9 | (1/1) Accurately ripped
10 | (1/1) Accurately ripped
11 | (1/1) Accurately ripped
12 | (1/1) Accurately ripped
13 | (1/1) Accurately ripped
14 | (1/1) Accurately ripped
[AccurateRip ID: 0014b50b-00e03652-bf0b730e] found.
Track [ CRC | V2 ] Status
01 [62d258c6|0e9b612c] (2+0/2) Accurately ripped
02 [acbec6c5|8cf79260] (2+0/2) Accurately ripped
03 [8ffe9b33|516d4125] (2+0/2) Accurately ripped
04 [6f0ff268|5391ffb2] (2+0/2) Accurately ripped
05 [a4f0015d|be6f581c] (2+0/2) Accurately ripped
06 [dd2e44b4|16716385] (2+0/2) Accurately ripped
07 [ea5f12f2|4091b2ac] (2+0/2) Accurately ripped
08 [2e41f715|96c1bf99] (2+0/2) Accurately ripped
09 [2cd8f263|326bd2f4] (2+0/2) Accurately ripped
10 [6b6ae26a|661c4055] (2+0/2) Accurately ripped
11 [95efaa70|20215b43] (2+0/2) Accurately ripped
12 [01f717b8|120ae63e] (2+0/2) Accurately ripped
13 [4f875e2a|10635724] (2+0/2) Accurately ripped
14 [4537124c|ce23a221] (2+0/2) Accurately ripped

Track Peak [ CRC32 ] [W/O NULL] [ LOG ]
– 99,8 [ACB5F1C7] [71F212C8] CRC32
01 99,8 [24E5C737] [540B7872]
02 97,8 [A708334D] [BAAE246F]
03 99,8 [5AFAA535] [411DE084]
04 99,8 [1BDBECF0] [47CD4F22]
05 88,0 [E2A6E370] [283A33C8]
06 97,8 [B262D93C] [13EAEEB3]
07 97,4 [50A05F2B] [C5E7CC07]
08 95,4 [8976BC71] [8C4CBB27]
09 99,1 [0BD716E0] [E83690B1]
10 82,9 [2D37E401] [430EB7E9]
11 99,0 [5AC8F10C] [FE676824]
12 96,4 [BB18CB53] [6B7BEEB9]
13 98,2 [01835A97] [B4E8B98F]
14 94,3 [32E24117] [76F8C03F]

Thanks to miklespr

Sigmund Snopek III – Roy Rogers Meets Albert Einstein (1982) [Reissue 2010] Download, Warez, DDL, Free, Full Album, Torrent, Legal.

Download


  • Recent Posts

  • Recent Tags