Sheila E. – The Glamorous Life (1984) | ViralVideoPk

Daily Dose of Free Downloads

Sheila E. – The Glamorous Life (1984)

Download

Sheila E. - The Glamorous Life (1984)

Sheila E. – The Glamorous Life (1984)
EAC Rip | FLAC with CUE and log | scans | 250 mb
MP3 CBR 320kbps | RAR | 93 mb
Genre: R&B, soul

The Glamorous Life is the 1984 debut album by American percussionist and singer Sheila Escovedo, better known as Sheila E. This featured the hit songs "The Belle Of St. Mark" and the title track.

Sheila E. - The Glamorous Life (1984)

1. The Belle Of St. Mark (5:08)
2. Shortberry Strawcake (4:44)
3. Noon Rendezvous (3:50)
4. Oliver’s House (6:20)
5. Next Time Wipe The Lipstick Off Your Collar (3:50)
6. The Glamorous Life (8:58)
7. The Glamorous Life (Club Edit) (6:33)

Sheila E.-lead vocals, percussion

Larry Williams-saxophone (tracks 6 & 7)
David Coleman-cello (tracks 4, 6 & 7)
Nick DeCaro-"the accordian" (track 5)
Novi Novog-violin (track 5)
J.J. (Jill Jones)-voice (track 1), additional vocals (track 4)
Brenda Bennett-background vocals (track 5)
Prince (uncredited)-everything else

Produced by Sheila E. & The Starr Company (Prince)
Mixed by Bill Jackson, Peggy Mac & Terry Christian
Mastered by Bernie Grundman Mastering

EAC Log
Exact Audio Copy V1.1 from 23. June 2015

EAC extraction logfile from 27. December 2016, 8:35

Sheila E. / The Glamorous Life

Used drive : TEAC DVD-ROM DV-28SW Adapter: 1 ID: 0

Read mode : Secure
Utilize accurate stream : Yes
Defeat audio cache : Yes
Make use of C2 pointers : No

Read offset correction : 6
Overread into Lead-In and Lead-Out : No
Fill up missing offset samples with silence : Yes
Delete leading and trailing silent blocks : No
Null samples used in CRC calculations : Yes
Used interface : Native Win32 interface for Win NT & 2000
Gap handling : Appended to previous track

Used output format : Internal WAV Routines
Sample format : 44.100 Hz; 16 Bit; Stereo

TOC of the extracted CD

Track | Start | Length | Start sector | End sector
––––––––––––––––––––––––––––-
1 | 0:00.33 | 5:12.10 | 33 | 23442
2 | 5:12.43 | 4:46.70 | 23443 | 44962
3 | 9:59.38 | 3:55.72 | 44963 | 62659
4 | 13:55.35 | 6:20.30 | 62660 | 91189
5 | 20:15.65 | 3:52.40 | 91190 | 108629
6 | 24:08.30 | 9:03.43 | 108630 | 149397
7 | 33:11.73 | 6:34.47 | 149398 | 178994

Track 1

Filename C:My DocumentsMy FLACSheila E. – The Glamorous Life (1984) [FLAC]1 – The Belle Of St. Mark.wav

Pre-gap length 0:00:02.33

Peak level 83.8 %
Extraction speed 2.9 X
Track quality 100.0 %
Test CRC 16D39D6A
Copy CRC 16D39D6A
Accurately ripped (confidence 10) [4D13D095] (AR v2)
Copy OK

Track 2

Filename C:My DocumentsMy FLACSheila E. – The Glamorous Life (1984) [FLAC]2 – Shortberry Strawcake.wav

Pre-gap length 0:00:01.28

Peak level 86.3 %
Extraction speed 2.9 X
Track quality 100.0 %
Test CRC 40112EEC
Copy CRC 40112EEC
Accurately ripped (confidence 10) [26182244] (AR v2)
Copy OK

Track 3

Filename C:My DocumentsMy FLACSheila E. – The Glamorous Life (1984) [FLAC]3 – Noon Rendezvous.wav

Pre-gap length 0:00:02.45

Peak level 81.7 %
Extraction speed 3.4 X
Track quality 100.0 %
Test CRC 0697E5B7
Copy CRC 0697E5B7
Accurately ripped (confidence 10) [30070FC5] (AR v2)
Copy OK

Track 4

Filename C:My DocumentsMy FLACSheila E. – The Glamorous Life (1984) [FLAC]4 – Oliver’s House.wav

Pre-gap length 0:00:02.72

Peak level 89.1 %
Extraction speed 3.6 X
Track quality 100.0 %
Test CRC 2A47C3E4
Copy CRC 2A47C3E4
Accurately ripped (confidence 10) [FC3E7499] (AR v2)
Copy OK

Track 5

Filename C:My DocumentsMy FLACSheila E. – The Glamorous Life (1984) [FLAC]5 – Next Time Wipe The Lipstick Off Your Collar.wav

Pre-gap length 0:00:00.12

Peak level 70.3 %
Extraction speed 2.9 X
Track quality 100.0 %
Test CRC 0C00CC31
Copy CRC 0C00CC31
Accurately ripped (confidence 10) [29EB305C] (AR v2)
Copy OK

Track 6

Filename C:My DocumentsMy FLACSheila E. – The Glamorous Life (1984) [FLAC]6 – The Glamorous Life.wav

Pre-gap length 0:00:00.12

Peak level 83.2 %
Extraction speed 4.8 X
Track quality 100.0 %
Test CRC 8AE5F2F4
Copy CRC 8AE5F2F4
Accurately ripped (confidence 10) [F53920B0] (AR v2)
Copy OK

Track 7

Filename C:My DocumentsMy FLACSheila E. – The Glamorous Life (1984) [FLAC]7 – The Glamorous Life (Club Edit).wav

Pre-gap length 0:00:02.25

Peak level 94.2 %
Extraction speed 4.8 X
Track quality 100.0 %
Test CRC 9C9560A2
Copy CRC 9C9560A2
Accurately ripped (confidence 10) [22C5B49B] (AR v2)
Copy OK

All tracks accurately ripped

No errors occurred

End of status report

–– CUETools DB Plugin V2.1.6

[CTDB TOCID: W104AkAidEMe.CjksWiyii_cECA-] found
Submit result: W104AkAidEMe.CjksWiyii_cECA- has been confirmed
Track | CTDB Status
1 | (14/14) Accurately ripped
2 | (13/14) Accurately ripped
3 | (14/14) Accurately ripped
4 | (13/14) Accurately ripped
5 | (14/14) Accurately ripped
6 | (14/14) Accurately ripped
7 | (14/14) Accurately ripped

==== Log checksum BFF46A6733CDB20976EFA1DF86EA5374F17B66F1BD2BF3258A6CF06E1331D4A0 ====

Sheila E. - The Glamorous Life (1984)

Sheila E. – The Glamorous Life (1984) Download, Warez, DDL, Free, Full Album, Torrent, Legal.

Download


  • Recent Posts

  • Recent Tags