Sex Pistols – Live '76 (2016) [4CD Box Set] | ViralVideoPk

Daily Dose of Free Downloads

Sex Pistols – Live '76 (2016) [4CD Box Set]

Download

Sex Pistols - Live '76 (2016) [4CD Box Set]

Sex Pistols – Live ’76
Punk Rock | FLAC (tracks)+cue, artwork | 03:36:39 | 1.47 GB
Label: UMC | Tracks: 58 | Rls.date: 2016

40 years on and, for good or ill, the Sex Pistols remain the band that we think of first when we think of the 70s punk revolution that continues to resonate. There isn’t much they can do about that. History has spoken. They were the band largely responsible for kicking against the established rock order and establishing a new attitude and DIY aesthetic. Although they would quite naturally baulk at the idea of being called a ‘punk’ outfit, it does on a certain level appear very timely that we’re celebrating the 40th Anniversary of punk this summer with this fantastic live collection. It was the summer of ‘76 and the Sex Pistols were causing havoc up and down the country. It has been noted that this series of gigs inspired a generation to make their own music and arguably turned the musical world on its head – such was the power and influence the band had. This collection, with the concerts released in full and correctly sequenced for the very first time also comes complete with stunning related photographs and an original facsimile press kit including articles from Melody Maker, Sounds, Rock Star and Rock New. Included in the package: 4th June – 1976: Lesser Free Trade Hall, Manchester – Recently voted one of the most important concerts of all time, alongside Woodstock and Live Aid. Although thousands claim to have been at the gig, only a handful of people were actually there. It’s reported that Morrissey who went on to form the Smiths was present as well as two lads who went on to form Joy Division. 29th August – 1976: Screen on the Green, Islington – More widely known for its cinema screenings this famous gig called ‘Midnight Special’ was organised by Malcolm Maclaren and saw support from The Clash and the Buzzcocks. Legend has it that magazine journalists and record company staff attempting to gain entry were reported to have been barred entry and told to ‘fuck off’. 17th September 1976: HM Prison, Chelmsford – This live show took place at Chelmsford Maximum Security Prison. It was said that Malcolm Maclaren wanted to play unusual non rock n roll places.

Sex Pistols - Live '76 (2016) [4CD Box Set]

Tracklist Disc 1: 4th June 1976 – Lesser Free Trade Hall, Manchester

1. Did You No Wrong (03:13)
2. No Lip (03:42)
3. Seventeen (02:21)
4. Stepping Stone (03:16)
5. New York (03:23)
6. Whatcha Gonna Do About It (04:04)
7. Submission (03:57)
8. Satellite (04:10)
9. No Feelings (02:47)
10. No Fun (05:16)
11. Substitute (03:21)
12. Pretty Vacant (03:17)
13. Problems (04:55)

EAC Log
Exact Audio Copy V1.0 beta 3 from 29. August 2011

EAC extraction logfile from 17. December 2016, 13:48

Sex Pistols / Live ’76 (4th June 1976 – Lesser Free Trade Hall, Manchester)

Used drive : MATSHITADVD-RAM UJ8G6 Adapter: 0 ID: 0

Read mode : Secure
Utilize accurate stream : Yes
Defeat audio cache : Yes
Make use of C2 pointers : No

Read offset correction : 103
Overread into Lead-In and Lead-Out : No
Fill up missing offset samples with silence : Yes
Delete leading and trailing silent blocks : No
Null samples used in CRC calculations : Yes
Used interface : Native Win32 interface for Win NT & 2000
Gap handling : Appended to previous track

Used output format : User Defined Encoder
Selected bitrate : 1024 kBit/s
Quality : High
Add ID3 tag : No
Command line compressor : C:Program Files (x86)Exact Audio CopyFlacflac.exe
Additional command line options : -8 -e -p -V -T "ARTIST=%artist%" -T "TITLE=%title%" -T "ALBUM=%albumtitle%" -T "DATE=%year%" -T "TRACKNUMBER=%tracknr%" -T "GENRE=%genre%" -T "PERFORMER=%albuminterpret%" -T "COMPOSER=%composer%" %haslyrics%–tag-from-file=LYRICS="%lyricsfile%"%haslyrics% -T "ALBUMARTIST=%albumartist%" -T "DISCNUMBER=%cdnumber%" -T "TOTALDISCS=%totalcds%" -T "TOTALTRACKS=%numtracks%" -T "COMMENT=%comment%" %source% -o %dest%

TOC of the extracted CD

Track | Start | Length | Start sector | End sector
––––––––––––––––––––––––––––-
1 | 0:00.00 | 3:13.48 | 0 | 14522
2 | 3:13.48 | 3:42.59 | 14523 | 31231
3 | 6:56.32 | 2:21.06 | 31232 | 41812
4 | 9:17.38 | 3:16.24 | 41813 | 56536
5 | 12:33.62 | 3:23.25 | 56537 | 71786
6 | 15:57.12 | 4:04.15 | 71787 | 90101
7 | 20:01.27 | 3:57.07 | 90102 | 107883
8 | 23:58.34 | 4:10.36 | 107884 | 126669
9 | 28:08.70 | 2:47.14 | 126670 | 139208
10 | 30:56.09 | 5:16.72 | 139209 | 162980
11 | 36:13.06 | 3:21.18 | 162981 | 178073
12 | 39:34.24 | 3:17.25 | 178074 | 192873
13 | 42:51.49 | 4:55.29 | 192874 | 215027

Track 1

Filename C:Sex Pistols – Live ’76 (2016) – FLACCD1 – 4th June 1976 – Lesser Free Trade Hall, Manchester1 – Did You No Wrong.wav

Pre-gap length 0:00:02.00

Peak level 98.8 %
Extraction speed 2.3 X
Track quality 100.0 %
Test CRC 0F3D22C0
Copy CRC 0F3D22C0
Accurately ripped (confidence 1) [DA0B2A06] (AR v2)
Copy OK

Track 2

Filename C:Sex Pistols – Live ’76 (2016) – FLACCD1 – 4th June 1976 – Lesser Free Trade Hall, Manchester2 – No Lip.wav

Peak level 97.5 %
Extraction speed 2.0 X
Track quality 99.9 %
Test CRC D2EDEF0B
Copy CRC D2EDEF0B
Accurately ripped (confidence 1) [B62025A6] (AR v2)
Copy OK

Track 3

Filename C:Sex Pistols – Live ’76 (2016) – FLACCD1 – 4th June 1976 – Lesser Free Trade Hall, Manchester3 – Seventeen.wav

Peak level 98.8 %
Extraction speed 1.7 X
Track quality 99.9 %
Test CRC 3387FD6E
Copy CRC 3387FD6E
Accurately ripped (confidence 1) [22D433C6] (AR v2)
Copy OK

Track 4

Filename C:Sex Pistols – Live ’76 (2016) – FLACCD1 – 4th June 1976 – Lesser Free Trade Hall, Manchester4 – Stepping Stone.wav

Peak level 98.8 %
Extraction speed 2.9 X
Track quality 100.0 %
Test CRC 87BEF010
Copy CRC 87BEF010
Accurately ripped (confidence 1) [65F1A8BD] (AR v2)
Copy OK

Track 5

Filename C:Sex Pistols – Live ’76 (2016) – FLACCD1 – 4th June 1976 – Lesser Free Trade Hall, Manchester5 – New York.wav

Peak level 98.8 %
Extraction speed 3.1 X
Track quality 100.0 %
Test CRC 99F8482D
Copy CRC 99F8482D
Accurately ripped (confidence 1) [11372F6D] (AR v2)
Copy OK

Track 6

Filename C:Sex Pistols – Live ’76 (2016) – FLACCD1 – 4th June 1976 – Lesser Free Trade Hall, Manchester6 – Whatcha Gonna Do About It.wav

Peak level 98.8 %
Extraction speed 3.4 X
Track quality 100.0 %
Test CRC E208DD7D
Copy CRC E208DD7D
Accurately ripped (confidence 1) [BA78262E] (AR v2)
Copy OK

Track 7

Filename C:Sex Pistols – Live ’76 (2016) – FLACCD1 – 4th June 1976 – Lesser Free Trade Hall, Manchester7 – Submission.wav

Peak level 98.8 %
Extraction speed 3.6 X
Track quality 100.0 %
Test CRC 72493E58
Copy CRC 72493E58
Accurately ripped (confidence 1) [CDC5D75E] (AR v2)
Copy OK

Track 8

Filename C:Sex Pistols – Live ’76 (2016) – FLACCD1 – 4th June 1976 – Lesser Free Trade Hall, Manchester8 – Satellite.wav

Peak level 98.8 %
Extraction speed 3.8 X
Track quality 100.0 %
Test CRC 609FA490
Copy CRC 609FA490
Accurately ripped (confidence 1) [B391D4C9] (AR v2)
Copy OK

Track 9

Filename C:Sex Pistols – Live ’76 (2016) – FLACCD1 – 4th June 1976 – Lesser Free Trade Hall, Manchester9 – No Feelings.wav

Peak level 98.8 %
Extraction speed 3.6 X
Track quality 100.0 %
Test CRC 6863C226
Copy CRC 6863C226
Accurately ripped (confidence 1) [875B9AB7] (AR v2)
Copy OK

Track 10

Filename C:Sex Pistols – Live ’76 (2016) – FLACCD1 – 4th June 1976 – Lesser Free Trade Hall, Manchester10 – No Fun.wav

Peak level 98.8 %
Extraction speed 4.2 X
Track quality 100.0 %
Test CRC A9925A37
Copy CRC A9925A37
Accurately ripped (confidence 1) [D2830B48] (AR v2)
Copy OK

Track 11

Filename C:Sex Pistols – Live ’76 (2016) – FLACCD1 – 4th June 1976 – Lesser Free Trade Hall, Manchester11 – Substitute.wav

Peak level 98.8 %
Extraction speed 4.1 X
Track quality 100.0 %
Test CRC D96AF179
Copy CRC D96AF179
Accurately ripped (confidence 1) [6300DFF6] (AR v2)
Copy OK

Track 12

Filename C:Sex Pistols – Live ’76 (2016) – FLACCD1 – 4th June 1976 – Lesser Free Trade Hall, Manchester12 – Pretty Vacant.wav

Peak level 98.8 %
Extraction speed 4.2 X
Track quality 100.0 %
Test CRC 6AAFFDB7
Copy CRC 6AAFFDB7
Accurately ripped (confidence 1) [8F79B86A] (AR v2)
Copy OK

Track 13

Filename C:Sex Pistols – Live ’76 (2016) – FLACCD1 – 4th June 1976 – Lesser Free Trade Hall, Manchester13 – Problems.wav

Peak level 98.8 %
Extraction speed 4.6 X
Track quality 100.0 %
Test CRC F7D3719F
Copy CRC F7D3719F
Accurately ripped (confidence 1) [2AE94B52] (AR v2)
Copy OK

All tracks accurately ripped

No errors occurred

End of status report

–– CUETools DB Plugin V2.1.3

[CTDB TOCID: c8lNkPXk4blhrc63c_yaRvWxUEg-] found, Submit result: c8lNkPXk4blhrc63c_yaRvWxUEg- has been confirmed
[cfee2127] (8/8) Accurately ripped

==== Log checksum 4FAB64BE05F4BA51A0DD413AAE3124B987F9CE0ED5026679A9D484EDB9CB13C9 ====

Sex Pistols - Live '76 (2016) [4CD Box Set]

Tracklist Disc 2: 29th August 1976 – Screen on the Green, Islington

1. Anarchy In The U.K. (04:56)
2. I Wanna Be Me (03:10)
3. Seventeen (02:19)
4. New York (03:07)
5. No Lip (03:45)
6. Stepping Stone (05:49)
7. Satellite (02:13)
8. Submission (03:51)
9. Liar (03:29)
10. No Feelings (03:05)
11. Substitute (03:07)
12. Pretty Vacant (03:08)
13. Problems (05:05)
14. Did You No Wrong (03:48)
15. No Fun (04:58)

EAC Log
Exact Audio Copy V1.0 beta 3 from 29. August 2011

EAC extraction logfile from 17. December 2016, 14:38

Sex Pistols / Live ’76 (29th August 1976 – Screen on the Green, Islington)

Used drive : MATSHITADVD-RAM UJ8G6 Adapter: 0 ID: 0

Read mode : Secure
Utilize accurate stream : Yes
Defeat audio cache : Yes
Make use of C2 pointers : No

Read offset correction : 103
Overread into Lead-In and Lead-Out : No
Fill up missing offset samples with silence : Yes
Delete leading and trailing silent blocks : No
Null samples used in CRC calculations : Yes
Used interface : Native Win32 interface for Win NT & 2000
Gap handling : Appended to previous track

Used output format : User Defined Encoder
Selected bitrate : 1024 kBit/s
Quality : High
Add ID3 tag : No
Command line compressor : C:Program Files (x86)Exact Audio CopyFlacflac.exe
Additional command line options : -8 -e -p -V -T "ARTIST=%artist%" -T "TITLE=%title%" -T "ALBUM=%albumtitle%" -T "DATE=%year%" -T "TRACKNUMBER=%tracknr%" -T "GENRE=%genre%" -T "PERFORMER=%albuminterpret%" -T "COMPOSER=%composer%" %haslyrics%–tag-from-file=LYRICS="%lyricsfile%"%haslyrics% -T "ALBUMARTIST=%albumartist%" -T "DISCNUMBER=%cdnumber%" -T "TOTALDISCS=%totalcds%" -T "TOTALTRACKS=%numtracks%" -T "COMMENT=%comment%" %source% -o %dest%

TOC of the extracted CD

Track | Start | Length | Start sector | End sector
––––––––––––––––––––––––––––-
1 | 0:00.00 | 4:56.38 | 0 | 22237
2 | 4:56.38 | 3:10.67 | 22238 | 36554
3 | 8:07.30 | 2:18.58 | 36555 | 46962
4 | 10:26.13 | 3:07.09 | 46963 | 60996
5 | 13:33.22 | 3:45.31 | 60997 | 77902
6 | 17:18.53 | 5:49.57 | 77903 | 104134
7 | 23:08.35 | 2:13.13 | 104135 | 114122
8 | 25:21.48 | 3:51.39 | 114123 | 131486
9 | 29:13.12 | 3:29.44 | 131487 | 147205
10 | 32:42.56 | 3:05.00 | 147206 | 161080
11 | 35:47.56 | 3:07.17 | 161081 | 175122
12 | 38:54.73 | 3:09.13 | 175123 | 189310
13 | 42:04.11 | 5:04.61 | 189311 | 212171
14 | 47:08.72 | 3:48.63 | 212172 | 229334
15 | 50:57.60 | 4:58.10 | 229335 | 251694

Track 1

Filename C:Sex Pistols – Live ’76 (2016) – FLACCD2 – 29th August 1976 – Screen on the Green, Islington1 – Anarchy in the UK.wav

Pre-gap length 0:00:02.00

Peak level 99.8 %
Extraction speed 2.5 X
Track quality 100.0 %
Test CRC 0C0918B7
Copy CRC 0C0918B7
Accurately ripped (confidence 1) [7A8FD221] (AR v2)
Copy OK

Track 2

Filename C:Sex Pistols – Live ’76 (2016) – FLACCD2 – 29th August 1976 – Screen on the Green, Islington2 – I Wanna Be Me.wav

Peak level 99.8 %
Extraction speed 1.9 X
Track quality 99.9 %
Test CRC 2E5579A6
Copy CRC 2E5579A6
Accurately ripped (confidence 1) [CF014DA5] (AR v2)
Copy OK

Track 3

Filename C:Sex Pistols – Live ’76 (2016) – FLACCD2 – 29th August 1976 – Screen on the Green, Islington3 – Seventeen.wav

Peak level 99.8 %
Extraction speed 1.7 X
Track quality 99.9 %
Test CRC 3CC30048
Copy CRC 3CC30048
Accurately ripped (confidence 1) [54C3A1C0] (AR v2)
Copy OK

Track 4

Filename C:Sex Pistols – Live ’76 (2016) – FLACCD2 – 29th August 1976 – Screen on the Green, Islington4 – New York.wav

Peak level 99.8 %
Extraction speed 2.9 X
Track quality 100.0 %
Test CRC 8315C949
Copy CRC 8315C949
Accurately ripped (confidence 1) [C4A1FD55] (AR v2)
Copy OK

Track 5

Filename C:Sex Pistols – Live ’76 (2016) – FLACCD2 – 29th August 1976 – Screen on the Green, Islington5 – No Lip.wav

Peak level 99.8 %
Extraction speed 2.4 X
Track quality 99.9 %
Test CRC CEDED836
Copy CRC CEDED836
Accurately ripped (confidence 1) [89490BCA] (AR v2)
Copy OK

Track 6

Filename C:Sex Pistols – Live ’76 (2016) – FLACCD2 – 29th August 1976 – Screen on the Green, Islington6 – Stepping Stone.wav

Peak level 99.8 %
Extraction speed 3.6 X
Track quality 100.0 %
Test CRC 1F9A668F
Copy CRC 1F9A668F
Accurately ripped (confidence 1) [0E6EC7ED] (AR v2)
Copy OK

Track 7

Filename C:Sex Pistols – Live ’76 (2016) – FLACCD2 – 29th August 1976 – Screen on the Green, Islington7 – Satellite.wav

Peak level 99.8 %
Extraction speed 3.3 X
Track quality 100.0 %
Test CRC BCB78865
Copy CRC BCB78865
Accurately ripped (confidence 1) [850BF29D] (AR v2)
Copy OK

Track 8

Filename C:Sex Pistols – Live ’76 (2016) – FLACCD2 – 29th August 1976 – Screen on the Green, Islington8 – Submission.wav

Peak level 99.8 %
Extraction speed 3.8 X
Track quality 100.0 %
Test CRC A0E8034F
Copy CRC A0E8034F
Accurately ripped (confidence 1) [9E07A47E] (AR v2)
Copy OK

Track 9

Filename C:Sex Pistols – Live ’76 (2016) – FLACCD2 – 29th August 1976 – Screen on the Green, Islington9 – Liar.wav

Peak level 99.8 %
Extraction speed 3.9 X
Track quality 100.0 %
Test CRC 5112638E
Copy CRC 5112638E
Accurately ripped (confidence 1) [2E1FF452] (AR v2)
Copy OK

Track 10

Filename C:Sex Pistols – Live ’76 (2016) – FLACCD2 – 29th August 1976 – Screen on the Green, Islington10 – No Feelings.wav

Peak level 99.8 %
Extraction speed 3.9 X
Track quality 100.0 %
Test CRC 7BC93EF9
Copy CRC 7BC93EF9
Accurately ripped (confidence 1) [C23D8F87] (AR v2)
Copy OK

Track 11

Filename C:Sex Pistols – Live ’76 (2016) – FLACCD2 – 29th August 1976 – Screen on the Green, Islington11 – Substitute.wav

Peak level 99.8 %
Extraction speed 2.8 X
Track quality 99.9 %
Test CRC DFC1259B
Copy CRC DFC1259B
Accurately ripped (confidence 1) [74DB8FEF] (AR v2)
Copy OK

Track 12

Filename C:Sex Pistols – Live ’76 (2016) – FLACCD2 – 29th August 1976 – Screen on the Green, Islington12 – Pretty Vacant.wav

Peak level 99.8 %
Extraction speed 4.1 X
Track quality 100.0 %
Test CRC 0D9BC08A
Copy CRC 0D9BC08A
Accurately ripped (confidence 1) [D1B86FAD] (AR v2)
Copy OK

Track 13

Filename C:Sex Pistols – Live ’76 (2016) – FLACCD2 – 29th August 1976 – Screen on the Green, Islington13 – Problems.wav

Peak level 99.8 %
Extraction speed 4.6 X
Track quality 100.0 %
Test CRC B8F7D8E9
Copy CRC B8F7D8E9
Accurately ripped (confidence 1) [C3D40B45] (AR v2)
Copy OK

Track 14

Filename C:Sex Pistols – Live ’76 (2016) – FLACCD2 – 29th August 1976 – Screen on the Green, Islington14 – Did You No Wrong.wav

Peak level 99.8 %
Extraction speed 4.6 X
Track quality 100.0 %
Test CRC 162E43A0
Copy CRC 162E43A0
Accurately ripped (confidence 1) [CE7B0C97] (AR v2)
Copy OK

Track 15

Filename C:Sex Pistols – Live ’76 (2016) – FLACCD2 – 29th August 1976 – Screen on the Green, Islington15 – No Fun.wav

Peak level 99.8 %
Extraction speed 3.8 X
Track quality 99.9 %
Test CRC 3F485B51
Copy CRC 3F485B51
Accurately ripped (confidence 1) [53EB1008] (AR v2)
Copy OK

All tracks accurately ripped

No errors occurred

End of status report

–– CUETools DB Plugin V2.1.3

[CTDB TOCID: xilnBrakUw5V9AG4DoxD.JyWR8M-] found, Submit result: xilnBrakUw5V9AG4DoxD.JyWR8M- has been confirmed
[f8aaef07] (8/8) Accurately ripped

==== Log checksum 98F844145A08CF78B76E9AC5AFFD296FC0EF63BA15BE2303523C6FDDB8587F1B ====

Sex Pistols - Live '76 (2016) [4CD Box Set]

Tracklist Disc 3: 17th September 1976 – HM Prison, Chelmsford

1. Anarchy In The U.K. (incomplete) (03:05)
2. I Wanna Be Me (03:09)
3. Seventeen (02:10)
4. New York (02:58)
5. No Lip (03:50)
6. Stepping Stone (03:55)
7. Satellite (05:04)
8. Submission (04:00)
9. Liar (03:18)
10. No Feelings (incomplete) (02:00)
11. Substitute (03:31)
12. No Fun (09:41)
13. Pretty Vacant (03:52)
14. Problems (04:52)
15. Anarchy In The U.K. (encore) (04:28)
16. Did You Know Wrong (03:23)

EAC Log
Exact Audio Copy V1.0 beta 3 from 29. August 2011

EAC extraction logfile from 17. December 2016, 15:28

Sex Pistols / Live ’76 (17th September 1976 – HM Prison, Chelmsford)

Used drive : MATSHITADVD-RAM UJ8G6 Adapter: 0 ID: 0

Read mode : Secure
Utilize accurate stream : Yes
Defeat audio cache : Yes
Make use of C2 pointers : No

Read offset correction : 103
Overread into Lead-In and Lead-Out : No
Fill up missing offset samples with silence : Yes
Delete leading and trailing silent blocks : No
Null samples used in CRC calculations : Yes
Used interface : Native Win32 interface for Win NT & 2000
Gap handling : Appended to previous track

Used output format : User Defined Encoder
Selected bitrate : 1024 kBit/s
Quality : High
Add ID3 tag : No
Command line compressor : C:Program Files (x86)Exact Audio CopyFlacflac.exe
Additional command line options : -8 -e -p -V -T "ARTIST=%artist%" -T "TITLE=%title%" -T "ALBUM=%albumtitle%" -T "DATE=%year%" -T "TRACKNUMBER=%tracknr%" -T "GENRE=%genre%" -T "PERFORMER=%albuminterpret%" -T "COMPOSER=%composer%" %haslyrics%–tag-from-file=LYRICS="%lyricsfile%"%haslyrics% -T "ALBUMARTIST=%albumartist%" -T "DISCNUMBER=%cdnumber%" -T "TOTALDISCS=%totalcds%" -T "TOTALTRACKS=%numtracks%" -T "COMMENT=%comment%" %source% -o %dest%

TOC of the extracted CD

Track | Start | Length | Start sector | End sector
––––––––––––––––––––––––––––-
1 | 0:00.00 | 3:05.56 | 0 | 13930
2 | 3:05.56 | 3:09.12 | 13931 | 28117
3 | 6:14.68 | 2:10.70 | 28118 | 37937
4 | 8:25.63 | 2:58.18 | 37938 | 51305
5 | 11:24.06 | 3:50.15 | 51306 | 68570
6 | 15:14.21 | 3:55.02 | 68571 | 86197
7 | 19:09.23 | 5:04.28 | 86198 | 109025
8 | 24:13.51 | 4:00.10 | 109026 | 127035
9 | 28:13.61 | 3:20.43 | 127036 | 142078
10 | 31:34.29 | 2:00.72 | 142079 | 151150
11 | 33:35.26 | 3:31.28 | 151151 | 167003
12 | 37:06.54 | 9:41.00 | 167004 | 210578
13 | 46:47.54 | 3:52.49 | 210579 | 228027
14 | 50:40.28 | 4:52.36 | 228028 | 249963
15 | 55:32.64 | 4:28.20 | 249964 | 270083
16 | 60:01.09 | 3:23.55 | 270084 | 285363

Track 1

Filename C:Sex Pistols – Live ’76 (2016) – FLACCD3 – 17th September 1976 – HM Prison, Chelmsford1 – Anarchy in the UK (incomplete).wav

Pre-gap length 0:00:02.00

Peak level 98.8 %
Extraction speed 2.4 X
Track quality 100.0 %
Test CRC F8D077B7
Copy CRC F8D077B7
Accurately ripped (confidence 1) [5F199259] (AR v2)
Copy OK

Track 2

Filename C:Sex Pistols – Live ’76 (2016) – FLACCD3 – 17th September 1976 – HM Prison, Chelmsford2 – I Wanna Be Me.wav

Peak level 100.0 %
Extraction speed 2.6 X
Track quality 100.0 %
Test CRC 0093C6B9
Copy CRC 0093C6B9
Accurately ripped (confidence 1) [5EC02AB2] (AR v2)
Copy OK

Track 3

Filename C:Sex Pistols – Live ’76 (2016) – FLACCD3 – 17th September 1976 – HM Prison, Chelmsford3 – Seventeen.wav

Peak level 98.8 %
Extraction speed 2.6 X
Track quality 100.0 %
Test CRC 20560DBE
Copy CRC 20560DBE
Accurately ripped (confidence 1) [C6A8AB04] (AR v2)
Copy OK

Track 4

Filename C:Sex Pistols – Live ’76 (2016) – FLACCD3 – 17th September 1976 – HM Prison, Chelmsford4 – New York.wav

Peak level 99.8 %
Extraction speed 2.8 X
Track quality 100.0 %
Test CRC 519DC5D2
Copy CRC 519DC5D2
Accurately ripped (confidence 1) [58AAA910] (AR v2)
Copy OK

Track 5

Filename C:Sex Pistols – Live ’76 (2016) – FLACCD3 – 17th September 1976 – HM Prison, Chelmsford5 – No Lip.wav

Peak level 98.8 %
Extraction speed 3.1 X
Track quality 100.0 %
Test CRC 42C4A3F6
Copy CRC 42C4A3F6
Accurately ripped (confidence 1) [CB29688D] (AR v2)
Copy OK

Track 6

Filename C:Sex Pistols – Live ’76 (2016) – FLACCD3 – 17th September 1976 – HM Prison, Chelmsford6 – Stepping Stone.wav

Peak level 98.8 %
Extraction speed 2.5 X
Track quality 99.9 %
Test CRC E1312689
Copy CRC E1312689
Accurately ripped (confidence 1) [144C4405] (AR v2)
Copy OK

Track 7

Filename C:Sex Pistols – Live ’76 (2016) – FLACCD3 – 17th September 1976 – HM Prison, Chelmsford7 – Satellite.wav

Peak level 98.8 %
Extraction speed 3.6 X
Track quality 100.0 %
Test CRC E703AB79
Copy CRC E703AB79
Accurately ripped (confidence 1) [292C840D] (AR v2)
Copy OK

Track 8

Filename C:Sex Pistols – Live ’76 (2016) – FLACCD3 – 17th September 1976 – HM Prison, Chelmsford8 – Submission.wav

Peak level 98.8 %
Extraction speed 3.7 X
Track quality 100.0 %
Test CRC C0CCEAC8
Copy CRC C0CCEAC8
Accurately ripped (confidence 1) [2AE5AFD7] (AR v2)
Copy OK

Track 9

Filename C:Sex Pistols – Live ’76 (2016) – FLACCD3 – 17th September 1976 – HM Prison, Chelmsford9 – Liar.wav

Peak level 100.0 %
Extraction speed 3.8 X
Track quality 100.0 %
Test CRC 22238C9E
Copy CRC 22238C9E
Accurately ripped (confidence 1) [FABC90FF] (AR v2)
Copy OK

Track 10

Filename C:Sex Pistols – Live ’76 (2016) – FLACCD3 – 17th September 1976 – HM Prison, Chelmsford10 – No Feelings (incomplete).wav

Pre-gap length 0:00:02.02

Peak level 98.8 %
Extraction speed 3.5 X
Track quality 100.0 %
Test CRC 8A8CA682
Copy CRC 8A8CA682
Accurately ripped (confidence 1) [BECE0A32] (AR v2)
Copy OK

Track 11

Filename C:Sex Pistols – Live ’76 (2016) – FLACCD3 – 17th September 1976 – HM Prison, Chelmsford11 – Substitute.wav

Peak level 99.8 %
Extraction speed 4.0 X
Track quality 100.0 %
Test CRC E686BA22
Copy CRC E686BA22
Accurately ripped (confidence 1) [BE1A8D41] (AR v2)
Copy OK

Track 12

Filename C:Sex Pistols – Live ’76 (2016) – FLACCD3 – 17th September 1976 – HM Prison, Chelmsford12 – No Fun.wav

Peak level 99.8 %
Extraction speed 4.1 X
Track quality 99.9 %
Test CRC C4FC3581
Copy CRC C4FC3581
Accurately ripped (confidence 1) [4CEC363F] (AR v2)
Copy OK

Track 13

Filename C:Sex Pistols – Live ’76 (2016) – FLACCD3 – 17th September 1976 – HM Prison, Chelmsford13 – Pretty Vacant.wav

Peak level 99.8 %
Extraction speed 4.5 X
Track quality 100.0 %
Test CRC EF0E5961
Copy CRC EF0E5961
Accurately ripped (confidence 1) [6B2B08DD] (AR v2)
Copy OK

Track 14

Filename C:Sex Pistols – Live ’76 (2016) – FLACCD3 – 17th September 1976 – HM Prison, Chelmsford14 – Problems.wav

Peak level 98.8 %
Extraction speed 3.7 X
Track quality 99.9 %
Test CRC 8FE03A8B
Copy CRC 8FE03A8B
Accurately ripped (confidence 1) [70FDE3EE] (AR v2)
Copy OK

Track 15

Filename C:Sex Pistols – Live ’76 (2016) – FLACCD3 – 17th September 1976 – HM Prison, Chelmsford15 – Anarchy in the UK (encore).wav

Peak level 98.8 %
Extraction speed 3.7 X
Track quality 99.9 %
Test CRC CC3E2E4A
Copy CRC CC3E2E4A
Accurately ripped (confidence 1) [4B5CE606] (AR v2)
Copy OK

Track 16

Filename C:Sex Pistols – Live ’76 (2016) – FLACCD3 – 17th September 1976 – HM Prison, Chelmsford16 – Did You No Wrong.wav

Peak level 98.8 %
Extraction speed 4.8 X
Track quality 100.0 %
Test CRC F8B7527C
Copy CRC F8B7527C
Accurately ripped (confidence 1) [B517D9BF] (AR v2)
Copy OK

All tracks accurately ripped

No errors occurred

End of status report

–– CUETools DB Plugin V2.1.3

[CTDB TOCID: B_Gy04fiJ7XW3ynQ7P0S1Qi7EWQ-] found, Submit result: B_Gy04fiJ7XW3ynQ7P0S1Qi7EWQ- has been confirmed
[0fc5cb4b] (8/8) Accurately ripped

==== Log checksum A7D10E285B8851EFDCDEE8F617C18877C36C83F1E7A99761A24F243F05DF1D70 ====

Sex Pistols - Live '76 (2016) [4CD Box Set]

Tracklist Disc 4: 24th September 1976 – 76 Club, Burton on Trent

1. Anarchy In The U.K. (03:40)
2. I Wanna Be Me (02:53)
3. Seventeen (02:05)
4. New York (03:04)
5. No Lip (03:34)
6. Stepping Stone (03:21)
7. Satellite (04:00)
8. Submission (04:14)
9. Liar (03:07)
10. Substitute (03:19)
11. No Feelings (02:54)
12. No Fun (04:54)
13. Pretty Vacant (03:39)
14. Problems (05:05)

EAC Log
Exact Audio Copy V1.0 beta 3 from 29. August 2011

EAC extraction logfile from 17. December 2016, 16:15

Sex Pistols / Live ’76 (24th September 1976 – 76 Club, Burton on Trent)

Used drive : MATSHITADVD-RAM UJ8G6 Adapter: 0 ID: 0

Read mode : Secure
Utilize accurate stream : Yes
Defeat audio cache : Yes
Make use of C2 pointers : No

Read offset correction : 103
Overread into Lead-In and Lead-Out : No
Fill up missing offset samples with silence : Yes
Delete leading and trailing silent blocks : No
Null samples used in CRC calculations : Yes
Used interface : Native Win32 interface for Win NT & 2000
Gap handling : Appended to previous track

Used output format : User Defined Encoder
Selected bitrate : 1024 kBit/s
Quality : High
Add ID3 tag : No
Command line compressor : C:Program Files (x86)Exact Audio CopyFlacflac.exe
Additional command line options : -8 -e -p -V -T "ARTIST=%artist%" -T "TITLE=%title%" -T "ALBUM=%albumtitle%" -T "DATE=%year%" -T "TRACKNUMBER=%tracknr%" -T "GENRE=%genre%" -T "PERFORMER=%albuminterpret%" -T "COMPOSER=%composer%" %haslyrics%–tag-from-file=LYRICS="%lyricsfile%"%haslyrics% -T "ALBUMARTIST=%albumartist%" -T "DISCNUMBER=%cdnumber%" -T "TOTALDISCS=%totalcds%" -T "TOTALTRACKS=%numtracks%" -T "COMMENT=%comment%" %source% -o %dest%

TOC of the extracted CD

Track | Start | Length | Start sector | End sector
––––––––––––––––––––––––––––-
1 | 0:00.00 | 3:41.47 | 0 | 16621
2 | 3:41.47 | 2:57.57 | 16622 | 29953
3 | 6:39.29 | 2:00.32 | 29954 | 38985
4 | 8:39.61 | 3:07.04 | 38986 | 53014
5 | 11:46.65 | 3:31.72 | 53015 | 68911
6 | 15:18.62 | 3:21.45 | 68912 | 84031
7 | 18:40.32 | 4:00.71 | 84032 | 102102
8 | 22:41.28 | 4:13.24 | 102103 | 121101
9 | 26:54.52 | 3:07.47 | 121102 | 135173
10 | 30:02.24 | 3:19.58 | 135174 | 150156
11 | 33:22.07 | 2:54.06 | 150157 | 163212
12 | 36:16.13 | 4:56.56 | 163213 | 185468
13 | 41:12.69 | 3:38.33 | 185469 | 201851
14 | 44:51.27 | 5:06.29 | 201852 | 224830

Track 1

Filename C:Sex Pistols – Live ’76 (2016) – FLACCD4 – 24th September 1976 – 76 Club, Burton on Trent1 – Anarchy In The UK.wav

Pre-gap length 0:00:02.00

Peak level 87.2 %
Extraction speed 2.4 X
Track quality 100.0 %
Test CRC 8A9A6DE3
Copy CRC 8A9A6DE3
Accurately ripped (confidence 1) [14E490B6] (AR v2)
Copy OK

Track 2

Filename C:Sex Pistols – Live ’76 (2016) – FLACCD4 – 24th September 1976 – 76 Club, Burton on Trent2 – I Wanna Be Me.wav

Peak level 98.8 %
Extraction speed 2.5 X
Track quality 100.0 %
Test CRC D39F5827
Copy CRC D39F5827
Accurately ripped (confidence 1) [880B776D] (AR v2)
Copy OK

Track 3

Filename C:Sex Pistols – Live ’76 (2016) – FLACCD4 – 24th September 1976 – 76 Club, Burton on Trent3 – Seventeen.wav

Peak level 94.9 %
Extraction speed 2.4 X
Track quality 100.0 %
Test CRC BCA9F7D4
Copy CRC BCA9F7D4
Accurately ripped (confidence 1) [2D5BF726] (AR v2)
Copy OK

Track 4

Filename C:Sex Pistols – Live ’76 (2016) – FLACCD4 – 24th September 1976 – 76 Club, Burton on Trent4 – New York.wav

Peak level 98.8 %
Extraction speed 2.8 X
Track quality 100.0 %
Test CRC ABB35713
Copy CRC ABB35713
Accurately ripped (confidence 1) [30984ED5] (AR v2)
Copy OK

Track 5

Filename C:Sex Pistols – Live ’76 (2016) – FLACCD4 – 24th September 1976 – 76 Club, Burton on Trent5 – No Lip.wav

Peak level 98.8 %
Extraction speed 3.1 X
Track quality 100.0 %
Test CRC B8C68154
Copy CRC B8C68154
Accurately ripped (confidence 1) [E4B0D006] (AR v2)
Copy OK

Track 6

Filename C:Sex Pistols – Live ’76 (2016) – FLACCD4 – 24th September 1976 – 76 Club, Burton on Trent6 – Stepping Stone.wav

Peak level 99.8 %
Extraction speed 3.2 X
Track quality 100.0 %
Test CRC B69E675E
Copy CRC B69E675E
Accurately ripped (confidence 1) [3C8C790E] (AR v2)
Copy OK

Track 7

Filename C:Sex Pistols – Live ’76 (2016) – FLACCD4 – 24th September 1976 – 76 Club, Burton on Trent7 – Satellite.wav

Peak level 98.8 %
Extraction speed 3.5 X
Track quality 100.0 %
Test CRC 7D4B1619
Copy CRC 7D4B1619
Accurately ripped (confidence 1) [07805AFD] (AR v2)
Copy OK

Track 8

Filename C:Sex Pistols – Live ’76 (2016) – FLACCD4 – 24th September 1976 – 76 Club, Burton on Trent8 – Submission.wav

Peak level 98.8 %
Extraction speed 2.8 X
Track quality 99.9 %
Test CRC E94F2086
Copy CRC E94F2086
Accurately ripped (confidence 1) [4DC37988] (AR v2)
Copy OK

Track 9

Filename C:Sex Pistols – Live ’76 (2016) – FLACCD4 – 24th September 1976 – 76 Club, Burton on Trent9 – Liar.wav

Peak level 98.8 %
Extraction speed 3.7 X
Track quality 100.0 %
Test CRC 7C498804
Copy CRC 7C498804
Accurately ripped (confidence 1) [5D18F36D] (AR v2)
Copy OK

Track 10

Filename C:Sex Pistols – Live ’76 (2016) – FLACCD4 – 24th September 1976 – 76 Club, Burton on Trent10 – Substitute.wav

Peak level 96.4 %
Extraction speed 3.8 X
Track quality 100.0 %
Test CRC 9741AEFA
Copy CRC 9741AEFA
Accurately ripped (confidence 1) [B623C831] (AR v2)
Copy OK

Track 11

Filename C:Sex Pistols – Live ’76 (2016) – FLACCD4 – 24th September 1976 – 76 Club, Burton on Trent11 – No Feelings.wav

Peak level 94.5 %
Extraction speed 3.9 X
Track quality 100.0 %
Test CRC 8FF15E4F
Copy CRC 8FF15E4F
Accurately ripped (confidence 1) [671F9864] (AR v2)
Copy OK

Track 12

Filename C:Sex Pistols – Live ’76 (2016) – FLACCD4 – 24th September 1976 – 76 Club, Burton on Trent12 – No Fun.wav

Peak level 98.8 %
Extraction speed 4.3 X
Track quality 100.0 %
Test CRC 306F995B
Copy CRC 306F995B
Accurately ripped (confidence 1) [9A6F69F0] (AR v2)
Copy OK

Track 13

Filename C:Sex Pistols – Live ’76 (2016) – FLACCD4 – 24th September 1976 – 76 Club, Burton on Trent13 – Pretty Vacant.wav

Peak level 98.8 %
Extraction speed 3.2 X
Track quality 99.9 %
Test CRC 48EB56ED
Copy CRC 48EB56ED
Accurately ripped (confidence 1) [1224CFFE] (AR v2)
Copy OK

Track 14

Filename C:Sex Pistols – Live ’76 (2016) – FLACCD4 – 24th September 1976 – 76 Club, Burton on Trent14 – Problems.wav

Peak level 99.8 %
Extraction speed 4.7 X
Track quality 100.0 %
Test CRC 256576C6
Copy CRC 256576C6
Accurately ripped (confidence 1) [74233F17] (AR v2)
Copy OK

All tracks accurately ripped

No errors occurred

End of status report

–– CUETools DB Plugin V2.1.3

[CTDB TOCID: OHCE.qSaqlmgck2Cu4xRZXXghXQ-] found, Submit result: OHCE.qSaqlmgck2Cu4xRZXXghXQ- has been confirmed
[c505dd57] (8/8) Accurately ripped

==== Log checksum 88485BAFA174006EE1172F89C7A5B539F084F4E5E8AC9645E49C447307B397CF ====

Sex Pistols - Live '76 (2016) [4CD Box Set]
Thanks to the Original customer.
My Blog mp3, flac & HDtracks

Sex Pistols – Live '76 (2016) [4CD Box Set] Download, Warez, DDL, Free, Full Album, Torrent, Legal.

Download


  • Recent Posts

  • Recent Tags