Seven Kingdoms – The Fire Is Mine (2012) [Reissue 2017]

Download
Seven Kingdoms - The Fire Is Mine (2012) [Reissue 2017]

Seven Kingdoms – The Fire Is Mine (2012) [Reissue 2017]
EAC Rip | FLAC: Image+Cue+Log | 415 Mb | MP3 CBR 320 kbps | 134 Mb | Scans | 22 Mb | Time: 53:06
Napalm Records | NPR 738 JC
Power Metal

This is the third album put out by Seven Kingdoms in 2012. The Fire Is Mine features the first recording with current bassist, Aaron Sluss. The Fire Is Mine was recorded in full at Morrisound Studios, along with the Mix and Mastering by Jim Morris. Another step above their previous effort, The Fire Is Mine is hailed as a Power Metal Classic to many. Seven Kingdoms was able to support Stratovarius and Amaranthe in Europe in 2013 to support this record. This was a very important step up for the band again in Production, Sound development and Touring.

Seven Kingdoms - The Fire Is Mine (2012) [Reissue 2017]
Seven Kingdoms
Wikipedia | Napalm Records

Track Listing

01. Beyond The Wall (01:17)
02. After The Fall (05:41)
03. Forever Brave (05:11)
04. Flame Of Olympus (04:54)
05. Symphony Of Stars (05:37)
06. The Fire Is Mine (05:39)
07. Kardia (04:55)
08. Fragile Minds Collapse (06:03)
09. In The Twisted Twilight (05:02)
10. A Debt Paid In Steel (00:57)
11. The King In The North (07:50)

Produced by Jim Morris & Seven Kingdoms

The Band

• Sabrina Valentine – Vocals
• Aaron Sluss – Bass
• Camden Cruz – Guitars
• Kevin Byrd – Guitars
• Keith Byrd – Drums

EAC Log
Exact Audio Copy V1.3 from 2. September 2016

EAC extraction logfile from 13. June 2017, 15:55

Seven Kingdoms / The Fire Is Mine (2017)

Used drive : MATSHITADVD-RAM UJ8G6 Adapter: 1 ID: 0

Read mode : Secure
Utilize accurate stream : Yes
Defeat audio cache : Yes
Make use of C2 pointers : No

Read offset correction : 103
Overread into Lead-In and Lead-Out : No
Fill up missing offset samples with silence : Yes
Delete leading and trailing silent blocks : No
Null samples used in CRC calculations : Yes
Used interface : Native Win32 interface for Win NT & 2000

Used output format : User Defined Encoder
Selected bitrate : 1024 kBit/s
Quality : High
Add ID3 tag : No
Command line compressor : C:Program Files (x86)Exact Audio CopyFLACFLAC.EXE
Additional command line options : -V -8 -T "Date=%year%" -T"Genre=%genre%" -T"COMMENT=Ripped by Ilijan – ilko" -8 -V %source%

TOC of the extracted CD

Track | Start | Length | Start sector | End sector
––––––––––––––––––––––––––––-
1 | 0:00.00 | 1:17.16 | 0 | 5790
2 | 1:17.16 | 5:41.12 | 5791 | 31377
3 | 6:58.28 | 5:10.69 | 31378 | 54696
4 | 12:09.22 | 4:53.69 | 54697 | 76740
5 | 17:03.16 | 5:37.05 | 76741 | 102020
6 | 22:40.21 | 5:38.50 | 102021 | 127420
7 | 28:18.71 | 4:54.73 | 127421 | 149543
8 | 33:13.69 | 6:03.01 | 149544 | 176769
9 | 39:16.70 | 5:01.56 | 176770 | 199400
10 | 44:18.51 | 0:56.35 | 199401 | 203635
11 | 45:15.11 | 7:50.29 | 203636 | 238914

Range status and errors

Selected range

Filename D:ilkoSeven Kingdoms – The Fire Is Mine (2017).wav

Peak level 98.8 %
Extraction speed 4.0 X
Range quality 99.9 %
Test CRC 8AF20BF1
Copy CRC 8AF20BF1
Copy OK

No errors occurred

AccurateRip summary

Track 1 cannot be verified as accurate (confidence 8) [BBAC62B5], AccurateRip returned [AFC4688D] (AR v2)
Track 2 cannot be verified as accurate (confidence 8) [B2C87470], AccurateRip returned [63DE2FBB] (AR v2)
Track 3 cannot be verified as accurate (confidence 8) [12339B85], AccurateRip returned [E7B05E7D] (AR v2)
Track 4 cannot be verified as accurate (confidence 8) [2B7DF79A], AccurateRip returned [28C6D50D] (AR v2)
Track 5 cannot be verified as accurate (confidence 8) [60505AFD], AccurateRip returned [3CB2FA46] (AR v2)
Track 6 cannot be verified as accurate (confidence 8) [A2B5CCC5], AccurateRip returned [D8C34025] (AR v2)
Track 7 cannot be verified as accurate (confidence 8) [5DF5F4C4], AccurateRip returned [7E257880] (AR v2)
Track 8 cannot be verified as accurate (confidence 8) [70B27810], AccurateRip returned [1941E9E8] (AR v2)
Track 9 cannot be verified as accurate (confidence 8) [00C59C17], AccurateRip returned [24E381FF] (AR v2)
Track 10 cannot be verified as accurate (confidence 8) [7E027015], AccurateRip returned [0BDBE493] (AR v2)
Track 11 cannot be verified as accurate (confidence 8) [ECFC98D4], AccurateRip returned [3C307568] (AR v2)

No tracks could be verified as accurate
You may have a different pressing from the one(s) in the database

End of status report

–– CUETools DB Plugin V2.1.6

[CTDB TOCID: .Tqewktwb9fqJ60u_IyRO2W9hr0-] found
Submit result: .Tqewktwb9fqJ60u_IyRO2W9hr0- has been confirmed
Track | CTDB Status
1 | (1/9) Accurately ripped
2 | (1/9) Accurately ripped
3 | (1/9) Accurately ripped
4 | (1/9) Accurately ripped
5 | (1/9) Accurately ripped
6 | (1/9) Accurately ripped
7 | (1/9) Accurately ripped
8 | (1/9) Accurately ripped
9 | (1/9) Accurately ripped
10 | (1/9) Accurately ripped
11 | (1/9) Accurately ripped

==== Log checksum B0D7C5C32CC8048EF34D91475C6A186075846369295DCDCF8D40E1A7A0AE998C ====

Many thanks to the original uploader: Ilijan

SEE also:
Seven Kingdoms 2007 Brothers Of The Night [Reissue 2017]
Seven Kingdoms 2010 Seven Kingdoms [Reissue 2017]
Seven Kingdoms 2017 Decennium [Japanese Ed.]

……
Welcome to My Blog for more wonderful music!
……

Seven Kingdoms – The Fire Is Mine (2012) [Reissue 2017] Download, Warez, DDL, Free, Full Album, Torrent, Legal.

Download