Seven Kingdoms – Seven Kingdoms (2010) [Reissue 2017]

Download
Seven Kingdoms - Seven Kingdoms (2010) [Reissue 2017]

Seven Kingdoms – Seven Kingdoms (2010) [Reissue 2017]
EAC Rip | FLAC: Image+Cue+Log | 436 Mb | MP3 CBR 320 kbps | 145 Mb | Scans | 35 Mb | Time: 56:44
Napalm Records | NPR 737 JC
Progressive Power Metal

This is the second album put out by Seven Kingdoms in 2010. This album features the debut of new vocalist Sabrina Cruz, and also new bassist, Miles Neff. The band started to morph into their current signature power metal sound on this record. The Self Titled Record was fully recorded at Morrisound Studios along with Mixing and Mastering by Jim Morris. This album is a marked improvement in production from the debut. This was the first album that Seven Kingdoms was able to tour in support of with Blind Guardian in a massive USA and Canadian tour in 2010. This album was heard by thousands of people on that tour and supporting dates and is considered the beginning of the power metal sound they are at today.

Seven Kingdoms - Seven Kingdoms (2010) [Reissue 2017]
Seven Kingdoms
Wikipedia | Napalm Records

Track Listing

01. Prelude (01:20)
02. Somewhere Far Away (04:47)
03. The Ones Who Breathe The Flame (05:13)
04. Open The Gates (06:32)
05. Vengeance By The Sons Of A King (06:08)
06. Wolf In Sheep’s Clothes (04:30)
07. A Murder Never Dead (04:04)
08. Into The Darkness (06:00)
09. Eyes To The North (04:30)
10. Thunder Of The Hammer (04:46)
11. Seven Kingdoms (08:54)

Produced by Seven Kingdoms and Jim Morris

The Band

• Sabrina Valentine – Vocals
• Miles Neff – Bass
• Camden Cruz – Guitars
• Kevin Byrd – Guitars
• Keith Byrd – Drums

*****
• Wade Black – guest vocals on the song Seven Kingdoms

EAC Log
Exact Audio Copy V1.3 from 2. September 2016

EAC extraction logfile from 13. June 2017, 15:28

Seven Kingdoms / Seven Kingdoms (2017)

Used drive : ATAPI iHAS122 W Adapter: 2 ID: 0

Read mode : Secure
Utilize accurate stream : Yes
Defeat audio cache : Yes
Make use of C2 pointers : No

Read offset correction : 48
Overread into Lead-In and Lead-Out : No
Fill up missing offset samples with silence : Yes
Delete leading and trailing silent blocks : No
Null samples used in CRC calculations : Yes
Used interface : Installed external ASPI interface

Used output format : User Defined Encoder
Selected bitrate : 1024 kBit/s
Quality : High
Add ID3 tag : No
Command line compressor : C:Program FilesFLACflac.exe
Additional command line options : -V -8 -T "Date=%year%" -T "Genre=%genre%" -T"COMMENT=Ripped by Ilijan – ilko" -8 -V %source%

TOC of the extracted CD

Track | Start | Length | Start sector | End sector
––––––––––––––––––––––––––––-
1 | 0:00.00 | 1:19.56 | 0 | 5980
2 | 1:19.56 | 4:46.40 | 5981 | 27470
3 | 6:06.21 | 5:12.70 | 27471 | 50940
4 | 11:19.16 | 6:32.05 | 50941 | 80345
5 | 17:51.21 | 6:08.02 | 80346 | 107947
6 | 23:59.23 | 4:29.73 | 107948 | 128195
7 | 28:29.21 | 4:04.07 | 128196 | 146502
8 | 32:33.28 | 5:59.63 | 146503 | 173490
9 | 38:33.16 | 4:30.05 | 173491 | 193745
10 | 43:03.21 | 4:45.57 | 193746 | 215177
11 | 47:49.03 | 8:53.63 | 215178 | 255215

Range status and errors

Selected range

Filename D:ilkoSeven Kingdoms – Seven Kingdoms (2017).wav

Peak level 97.8 %
Extraction speed 3.2 X
Range quality 100.0 %
Test CRC F4B22A6D
Copy CRC F4B22A6D
Copy OK

No errors occurred

AccurateRip summary

Track 1 not present in database
Track 2 not present in database
Track 3 not present in database
Track 4 not present in database
Track 5 not present in database
Track 6 not present in database
Track 7 not present in database
Track 8 not present in database
Track 9 not present in database
Track 10 not present in database
Track 11 not present in database

None of the tracks are present in the AccurateRip database

End of status report

–– CUETools DB Plugin V2.1.6

[CTDB TOCID: H16IEPnK6g4xS7E7zs.cmF3cIHM-] found
Submit result: H16IEPnK6g4xS7E7zs.cmF3cIHM- has been confirmed
Track | CTDB Status
1 | (1/1) Accurately ripped
2 | (1/1) Accurately ripped
3 | (1/1) Accurately ripped
4 | (1/1) Accurately ripped
5 | (1/1) Accurately ripped
6 | (1/1) Accurately ripped
7 | (1/1) Accurately ripped
8 | (1/1) Accurately ripped
9 | (1/1) Accurately ripped
10 | (1/1) Accurately ripped
11 | (1/1) Accurately ripped

==== Log checksum 8A417A6E4DF606353A0722F2549ACE766485F398D5D0D05A51523DBD7AFFC28A ====

Many thanks to the original uploader: Ilijan

SEE also:
Seven Kingdoms 2007 Brothers Of The Night [Reissue 2017]
Seven Kingdoms 2017 Decennium [Japanese Ed.]

……
Welcome to My Blog for more wonderful music!
……

Seven Kingdoms – Seven Kingdoms (2010) [Reissue 2017] Download, Warez, DDL, Free, Full Album, Torrent, Legal.

Download