Seth Swirsky – Circles and Squares (2016)

Download
Seth Swirsky - Circles and Squares (2016)

Seth Swirsky – Circles and Squares (2016)
EAC | Flac(Image) + Cue + Log & MP3 CBR 320Kbps
Not On Label | ~ 270 or 99 Mb | Scans(jpg) -> 45 Mb
Power Pop, Soft Rock, Pop Rock

Multi-Award Winning Singer-Songwriter Seth Swirsky is back with his long awaited, 3rd solo album, ”Circles and Squares”. Swirsky, one part of the highly acclaimed pop duo The Red Button, wrote, played and produced the entire 17-song album of newly-minted, pop gems. A renowned pop songwriter, Swirsky has written hits for a wide array of artists including Taylor Dayne (”Tell It To My Heart”), Smokey Robinson, Michael McDonald, Olivia Newton-John, Air Supply and many others.

~ amazon

Listened to this new pop album over and over on the 2-hour drive from Teaneck to Philly, and it was the shortest heart-warming, finger-tapping, head bobbing 2-hour drive I can remember! If you love the early Beatles, you will love Seth Swirsky ‘s new CD. I can’t even tell you what my favorite song is, I just love them all. You’re gonna love it, too.

By JLW, amazon

Seth Swirsky – Circles and Squares (2016):

Seth Swirsky - Circles and Squares (2016)

Tracklist:

1. Shine 3:02
2. Circles and Squares/Go 3:06
3. Old Letter 3:11
4. Far Away 3:25
5. Let’s Get Married 2:20
6. Trying to Keep It Simple 3:09
7. I Loved Last Night 2:30
8. Belong 2:14
9. Sonic Ferris Wheel 2:04
10. Let’s Move to Spain 2:38
11. The Simplest Way 2:31
12. Table 2:15
13. With Her Now 1:49
14. I Don’t Have Anything (If I Don’t Have You) 2:55
15. Abyss 2:59
16. I Think of Her 1:50

EAC Log
Exact Audio Copy V1.1 from 23. June 2015

Отчёт EAC об извлечении, выполненном 26. октября 2016, 17:30

Seth Swirsky / Circles and Squares

Дисковод: ASUS DRW-24B3ST Adapter: 0 ID: 0

Режим чтения : Достоверность
Использование точного потока : Да
Отключение кэша аудио : Да
Использование указателей C2 : Нет

Коррекция смещения при чтении : 6
Способность читать области Lead-in и Lead-out : Нет
Заполнение пропущенных сэмплов тишиной : Да
Удаление блоков с тишиной в начале и конце : Нет
При вычислениях CRC использовались нулевые сэмплы : Да
Интерфейс : Установленный внешний ASPI-интерфейс

Выходной формат : Пользовательский кодировщик
Выбранный битрейт : 1024 kBit/s
Качество : Высокий
Добавление ID3-тега : Нет
Утилита сжатия : C:Program Files (x86)Exact Audio CopyFLACFLAC.EXE
Дополнительные параметры : -6 -V -T "ARTIST=%artist%" -T "TITLE=%title%" -T "ALBUM=%albumtitle%" -T "DATE=%year%" -T "TRACKNUMBER=%tracknr%" -T "GENRE=%genre%" -T "COMMENT=%comment%" -T "BAND=%albuminterpret%" -T "ALBUMARTIST=%albuminterpret%" -T "COMPOSER=%composer%" %haslyrics%–tag-from-file=LYRICS="%lyricsfile%"%haslyrics% -T "DISCNUMBER=%cdnumber%" -T "TOTALDISCS=%totalcds%" -T "TOTALTRACKS=%numtracks%" %hascover%–picture="%coverfile%"%hascover% %source% -o %dest%

TOC извлечённого CD

Трек | Старт | Длительность | Начальный сектор | Конечный сектор
––––––––––––––––––––––––––––––––––-
1 | 0:00.00 | 3:02.35 | 0 | 13684
2 | 3:02.35 | 3:06.47 | 13685 | 27681
3 | 6:09.07 | 3:11.58 | 27682 | 42064
4 | 9:20.65 | 3:25.19 | 42065 | 57458
5 | 12:46.09 | 2:20.30 | 57459 | 67988
6 | 15:06.39 | 3:08.73 | 67989 | 82161
7 | 18:15.37 | 2:30.08 | 82162 | 93419
8 | 20:45.45 | 2:14.37 | 93420 | 103506
9 | 23:00.07 | 2:04.37 | 103507 | 112843
10 | 25:04.44 | 2:38.20 | 112844 | 124713
11 | 27:42.64 | 2:31.04 | 124714 | 136042
12 | 30:13.68 | 2:15.08 | 136043 | 146175
13 | 32:29.01 | 1:49.14 | 146176 | 154364
14 | 34:18.15 | 2:55.70 | 154365 | 167559
15 | 37:14.10 | 2:59.13 | 167560 | 180997
16 | 40:13.23 | 1:50.65 | 180998 | 189312

Характеристики диапазона извлечения и сообщения об ошибках

Выбранный диапазон

Имя файла C:Torrents – mySeth Swirsky – 2016 – Circles And SquaresSeth Swirsky – Circles and Squares.wav

Пиковый уровень 100.0 %
Скорость извлечения 8.2 X
Качество диапазона 99.9 %
CRC теста 37CE5C84
CRC копии 37CE5C84
Копирование… OK

Ошибок не произошло

AccurateRip: сводка

Трек 1 отсутствует в базе данных
Трек 2 отсутствует в базе данных
Трек 3 отсутствует в базе данных
Трек 4 отсутствует в базе данных
Трек 5 отсутствует в базе данных
Трек 6 отсутствует в базе данных
Трек 7 отсутствует в базе данных
Трек 8 отсутствует в базе данных
Трек 9 отсутствует в базе данных
Трек 10 отсутствует в базе данных
Трек 11 отсутствует в базе данных
Трек 12 отсутствует в базе данных
Трек 13 отсутствует в базе данных
Трек 14 отсутствует в базе данных
Трек 15 отсутствует в базе данных
Трек 16 отсутствует в базе данных

Ни одного трека нет в базе AccurateRip

Конец отчёта

==== Контрольная сумма отчёта DAEFCDB4D6C5E69760BF83209BB6B4AE826E13B8444B44F1F02ECF8AABB50FA3 ====

DR Log
foobar2000 1.2.9 / Dynamic Range Meter 1.1.1
log date: 2017-07-15 20:31:52

––––––––––––––––––––––––––––––––––––––––
Analyzed: Seth Swirsky / Circles and Squares
––––––––––––––––––––––––––––––––––––––––

DR Peak RMS Duration Track
––––––––––––––––––––––––––––––––––––––––
DR8 -0.26 dB -10.06 dB 3:02 01-Shine
DR9 0.00 dB -11.12 dB 3:07 02-Circles and Squares
DR8 0.00 dB -10.14 dB 3:12 03-Old Letter
DR8 -0.34 dB -10.82 dB 3:25 04-Far Away
DR6 0.00 dB -8.95 dB 2:20 05-Let’s Get Married
DR8 -0.03 dB -9.34 dB 3:09 06-Trying To Keep It Simple
DR7 0.00 dB -9.44 dB 2:30 07-I Loved Last Night
DR8 -0.35 dB -10.76 dB 2:14 08-Belong
DR7 -0.34 dB -9.63 dB 2:04 09-Sonic Ferris Wheel
DR8 -0.30 dB -9.94 dB 2:38 10-Let’s Move To Spain
DR8 -0.22 dB -10.51 dB 2:31 11-The SImplest Way
DR8 -0.15 dB -9.44 dB 2:15 12-Table
DR7 -1.17 dB -11.04 dB 1:49 13-With Her Now
DR8 -0.01 dB -9.79 dB 2:56 14-I Don’t Have Anything (If I Don’t Have You)
DR7 -0.30 dB -9.82 dB 2:59 15-Abyss
DR7 -0.43 dB -10.71 dB 1:51 16-I Think Of Her
––––––––––––––––––––––––––––––––––––––––

Number of tracks: 16
Official DR value: DR8

Samplerate: 44100 Hz
Channels: 2
Bits per sample: 16
Bitrate: 870 kbps
Codec: FLAC

CUETools Log
[CUETools log; Date: 15.07.2017 20:27:52; Version: 2.1.4]
[CTDB TOCID: 7qW6SPEwXe0MRchtGRAwOSnWrcM-] found.
Track | CTDB Status
1 | (4/4) Accurately ripped
2 | (4/4) Accurately ripped
3 | (4/4) Accurately ripped
4 | (4/4) Accurately ripped
5 | (4/4) Accurately ripped
6 | (4/4) Accurately ripped
7 | (4/4) Accurately ripped
8 | (4/4) Accurately ripped
9 | (4/4) Accurately ripped
10 | (4/4) Accurately ripped
11 | (4/4) Accurately ripped
12 | (4/4) Accurately ripped
13 | (4/4) Accurately ripped
14 | (4/4) Accurately ripped
15 | (4/4) Accurately ripped
16 | (4/4) Accurately ripped
[AccurateRip ID: 0019f08e-0131efc4-d709dc10] disk not present in database.

Track Peak [ CRC32 ] [W/O NULL] [ LOG ]
– 100,0 [37CE5C84] [AA317D81] CRC32
01 97,0 [B37043EA] [23F17EDD]
02 100,0 [4BF9F888] [CC7F7E77]
03 100,0 [164141B7] [712F7C78]
04 96,1 [48BEF9B0] [33E8E660]
05 100,0 [478BDB5F] [D375D794]
06 99,6 [94F20724] [E7755EED]
07 100,0 [B79A63FE] [E3961383]
08 96,0 [9D881C60] [21FD4505]
09 96,1 [8F93BAAA] [1ECB0FB3]
10 96,5 [AE84F974] [C6B3C9E6]
11 97,4 [2B1D0547] [E30BFD33]
12 98,2 [B0E005FC] [53B6EA9C]
13 87,3 [CF00AC8D] [E9A765FF]
14 99,8 [48E764D8] [13FA694A]
15 96,5 [5A07F443] [0F6C4CBD]
16 95,2 [9BB35591] [4C105A67]

Seth Swirsky - Circles and Squares (2016)

All thanks go to Копысов

Download Seth Swirsky – Circles and Squares (2016):

Seth Swirsky – Circles and Squares (2016) Download, Warez, DDL, Free, Full Album, Torrent, Legal.

Download