Sergi Sirvent Octopussy Cats – Inferencies (2012) {Fresh Sound New Talent} | ViralVideoPk

Daily Dose of Free Downloads

Sergi Sirvent Octopussy Cats – Inferencies (2012) {Fresh Sound New Talent}

Download

Sergi Sirvent Octopussy Cats - Inferencies (2012) {Fresh Sound New Talent}

Sergi Sirvent Octopussy Cats – Inferencies (2012)
EAC Rip | FLAC (tracks+.cue, log) | Artwork | 678 mb | MP3 CBR 320kbps | RAR | 348 mb
Jazz, Contemporary Jazz | Label: Fresh Sound New Talent / FSNT-413

The work of the Catalan pianist Sergi Sirvent, despite the organizational complexity that entails such a wide formation, is a real delight from beginning to end. Inferències and the group that develops it, is an octet conformed by a cast of musicians coming from diverse musical areas of the Barcelona scene. A project to publicize the compositional concerns in large format of one of the most interesting musicians and creators that currently exist in the national jazz scene.

Tracklist:

CD1:

Sergi Sirvent Octopussy Cats - Inferencies (2012) {Fresh Sound New Talent}

01. Iris
02. Interludic
03. Transending
04. Ode To the Listener
05. Primera Feira

EAC log CD1
Exact Audio Copy V1.0 beta 3 from 29. August 2011

EAC extraction logfile from 3. July 2013, 16:27

Sergi Sirvent Octopussy Cats / Inferencies CD1

Used drive : PLEXTOR DVDR PX-860A Adapter: 0 ID: 0

Read mode : Secure
Utilize accurate stream : Yes
Defeat audio cache : Yes
Make use of C2 pointers : No

Read offset correction : 96
Overread into Lead-In and Lead-Out : No
Fill up missing offset samples with silence : Yes
Delete leading and trailing silent blocks : No
Null samples used in CRC calculations : Yes
Used interface : Native Win32 interface for Win NT & 2000
Gap handling : Appended to previous track

Used output format : User Defined Encoder
Selected bitrate : 1024 kBit/s
Quality : High
Add ID3 tag : No
Command line compressor : C:Program FilesExact Audio CopyFlacflac.exe
Additional command line options : -8 -V -T "ARTIST=%artist%" -T "TITLE=%title%" -T "ALBUM=%albumtitle%" -T "DATE=%year%" -T "TRACKNUMBER=%tracknr%" -T "GENRE=%genre%" -T "PERFORMER=%albuminterpret%" -T "COMPOSER=%composer%" %haslyrics%–tag-from-file=LYRICS="%lyricsfile%"%haslyrics% -T "ALBUMARTIST=%albumartist%" -T "DISCNUMBER=%cdnumber%" -T "TOTALDISCS=%totalcds%" -T "TOTALTRACKS=%numtracks%" -T "COMMENT=EAC Secure Mode, Test & Copy, AccurateRip, FLAC -8" %source% -o %dest%

TOC of the extracted CD

Track | Start | Length | Start sector | End sector
––––––––––––––––––––––––––––-
1 | 0:00.00 | 10:18.30 | 0 | 46379
2 | 10:18.30 | 8:20.29 | 46380 | 83908
3 | 18:38.59 | 10:35.33 | 83909 | 131566
4 | 29:14.17 | 15:32.52 | 131567 | 201518
5 | 44:46.69 | 7:27.01 | 201519 | 235044

Track 1

Filename O:DLSergi Sirvent Octopussy Cats – Inferencies CD1 (2012) [FLAC]1 – Iris.wav

Pre-gap length 0:00:02.00

Peak level 98.8 %
Extraction speed 1.9 X
Track quality 100.0 %
Test CRC 9E8D1E27
Copy CRC 9E8D1E27
Track not present in AccurateRip database
Copy OK

Track 2

Filename O:DLSergi Sirvent Octopussy Cats – Inferencies CD1 (2012) [FLAC]2 – Interludic.wav

Pre-gap length 0:00:02.00

Peak level 100.0 %
Extraction speed 2.3 X
Track quality 100.0 %
Test CRC C135A751
Copy CRC C135A751
Track not present in AccurateRip database
Copy OK

Track 3

Filename O:DLSergi Sirvent Octopussy Cats – Inferencies CD1 (2012) [FLAC]3 – Transending.wav

Pre-gap length 0:00:02.00

Peak level 100.0 %
Extraction speed 2.5 X
Track quality 99.9 %
Test CRC 31439F4E
Copy CRC 31439F4E
Track not present in AccurateRip database
Copy OK

Track 4

Filename O:DLSergi Sirvent Octopussy Cats – Inferencies CD1 (2012) [FLAC]4 – Ode To the Listener.wav

Pre-gap length 0:00:02.00

Peak level 100.0 %
Extraction speed 2.8 X
Track quality 99.9 %
Test CRC D9C11937
Copy CRC D9C11937
Track not present in AccurateRip database
Copy OK

Track 5

Filename O:DLSergi Sirvent Octopussy Cats – Inferencies CD1 (2012) [FLAC]5 – Primera Feira.wav

Pre-gap length 0:00:02.00

Peak level 100.0 %
Extraction speed 3.2 X
Track quality 100.0 %
Test CRC 3D0DA22D
Copy CRC 3D0DA22D
Track not present in AccurateRip database
Copy OK

None of the tracks are present in the AccurateRip database

No errors occurred

End of status report

–– CUETools DB Plugin V2.1.3

[CTDB TOCID: hHpgKUiD3Fmst0CxxMIWqLg_GC8-] disk not present in database, Submit result: hHpgKUiD3Fmst0CxxMIWqLg_GC8- has been uploaded

==== Log checksum 56E5657BB41D194C2175BE33E72F6FFAD3AD360DC1F3207EDB76EB88161E70D8 ====

Sergi Sirvent Octopussy Cats - Inferencies (2012) {Fresh Sound New Talent}

CD2:

Sergi Sirvent Octopussy Cats - Inferencies (2012) {Fresh Sound New Talent}

01. In Albis
02. In Extremes
03. Concentric
04. Jocs De Paraules
05. On Time

EAC log CD1
Exact Audio Copy V1.0 beta 3 from 29. August 2011

EAC extraction logfile from 3. July 2013, 18:39

Sergi Sirvent Octopussy Cats / Inferencies CD2

Used drive : PLEXTOR DVDR PX-860A Adapter: 0 ID: 0

Read mode : Secure
Utilize accurate stream : Yes
Defeat audio cache : Yes
Make use of C2 pointers : No

Read offset correction : 96
Overread into Lead-In and Lead-Out : No
Fill up missing offset samples with silence : Yes
Delete leading and trailing silent blocks : No
Null samples used in CRC calculations : Yes
Used interface : Native Win32 interface for Win NT & 2000
Gap handling : Appended to previous track

Used output format : User Defined Encoder
Selected bitrate : 1024 kBit/s
Quality : High
Add ID3 tag : No
Command line compressor : C:Program FilesExact Audio CopyFlacflac.exe
Additional command line options : -8 -V -T "ARTIST=%artist%" -T "TITLE=%title%" -T "ALBUM=%albumtitle%" -T "DATE=%year%" -T "TRACKNUMBER=%tracknr%" -T "GENRE=%genre%" -T "PERFORMER=%albuminterpret%" -T "COMPOSER=%composer%" %haslyrics%–tag-from-file=LYRICS="%lyricsfile%"%haslyrics% -T "ALBUMARTIST=%albumartist%" -T "DISCNUMBER=%cdnumber%" -T "TOTALDISCS=%totalcds%" -T "TOTALTRACKS=%numtracks%" -T "COMMENT=EAC Secure Mode, Test & Copy, AccurateRip, FLAC -8" %source% -o %dest%

TOC of the extracted CD

Track | Start | Length | Start sector | End sector
––––––––––––––––––––––––––––-
1 | 0:00.00 | 10:15.24 | 0 | 46148
2 | 10:15.24 | 10:33.55 | 46149 | 93678
3 | 20:49.04 | 9:42.39 | 93679 | 137367
4 | 30:31.43 | 8:13.74 | 137368 | 174416
5 | 38:45.42 | 5:22.43 | 174417 | 198609

Track 1

Filename O:DLSergi Sirvent Octopussy Cats – Inferencies CD2 (2012) [FLAC]1 – In Albis.wav

Pre-gap length 0:00:02.00

Peak level 100.0 %
Extraction speed 2.0 X
Track quality 100.0 %
Test CRC D3DF1FA8
Copy CRC D3DF1FA8
Track not present in AccurateRip database
Copy OK

Track 2

Filename O:DLSergi Sirvent Octopussy Cats – Inferencies CD2 (2012) [FLAC]2 – In Extremes.wav

Pre-gap length 0:00:02.00

Peak level 98.8 %
Extraction speed 2.3 X
Track quality 100.0 %
Test CRC F284CC96
Copy CRC F284CC96
Track not present in AccurateRip database
Copy OK

Track 3

Filename O:DLSergi Sirvent Octopussy Cats – Inferencies CD2 (2012) [FLAC]3 – Concentric.wav

Pre-gap length 0:00:02.00

Peak level 100.0 %
Extraction speed 2.7 X
Track quality 100.0 %
Test CRC 3C60EAC8
Copy CRC 3C60EAC8
Track not present in AccurateRip database
Copy OK

Track 4

Filename O:DLSergi Sirvent Octopussy Cats – Inferencies CD2 (2012) [FLAC]4 – Jocs De Paraules.wav

Pre-gap length 0:00:02.00

Peak level 100.0 %
Extraction speed 2.7 X
Track quality 99.9 %
Test CRC 9E5F1027
Copy CRC 9E5F1027
Track not present in AccurateRip database
Copy OK

Track 5

Filename O:DLSergi Sirvent Octopussy Cats – Inferencies CD2 (2012) [FLAC]5 – On Time.wav

Pre-gap length 0:00:02.00

Peak level 98.4 %
Extraction speed 2.9 X
Track quality 100.0 %
Test CRC EE106035
Copy CRC EE106035
Track not present in AccurateRip database
Copy OK

None of the tracks are present in the AccurateRip database

No errors occurred

End of status report

–– CUETools DB Plugin V2.1.3

[CTDB TOCID: DrmEQjGZGbrjmmi_SXhqr0rHhM0-] disk not present in database, Submit result: DrmEQjGZGbrjmmi_SXhqr0rHhM0- has been uploaded

==== Log checksum D22FA39D6179F239AD4B8B1D87173413D41B3DF971B678AF866A5CCF1288B9EF ====

Sergi Sirvent Octopussy Cats - Inferencies (2012) {Fresh Sound New Talent}

All compositions by Sergi Sirvent, except "Iris" by Wayne Shorter.
Personnel:
Sergi Sirvent (piano), Jordi Gaspar (bass), Jordi Gardeñas (drums), Jaume Llombart (guitars), Voro García (trumpet, flugelhorn), Hugo Astudillo (alto & soprano saxes), Albert Cirera (tenor & soprano saxes), Pau Doménech (bass clarinet, flute).

Recorded by Miquel Roger at auditorium Anacrusi Recording Studio in Jafre Girona, on March 30 & 31, 2012.
Mixed by David Stoller at th Samurai Hotel Recording Studio, in Brooklyn, New York, on April 3,4 & 5, 2012.
Mastered by Kevin Blackler at Blackler mastering Studio, Brooklyn, New York, in April 2012.
Produced by Sergi Sirvent Escué.
Executive Producer: Jordi Pujol.

Thanks to the Original customer.

Sergi Sirvent Octopussy Cats – Inferencies (2012) {Fresh Sound New Talent} Download, Warez, DDL, Free, Full Album, Torrent, Legal.

Download


  • Recent Posts

  • Recent Tags