Semyon Bychkov, Czech Philharmonic – The Tchaikovsky Project: Pathetique, Romeo & Juliet (2016)

Download
Semyon Bychkov, Czech Philharmonic - The Tchaikovsky Project: Pathetique, Romeo & Juliet (2016)

Semyon Bychkov, Czech Philharmonic – The Tchaikovsky Project: Pathetique, Romeo & Juliet (2016)
EAC | FLAC (image+.cue, log) | Covers Included | 64:04 | 284 MB
Genre: Classical | Label: Decca | Catalog: 4830656

Semyon Bychkov has been passionately devoted to the music of Pyotr Il’yich Tchaikovsky since his childhood, so he clearly regards recording all of the symphonies and the major orchestral works for Decca as a labor of love. This first volume in The Tchaikovsky Project opens with Tchaikovsky’s last symphony, the Symphony No. 6 in B minor, "Pathétique," and includes as filler the popular Romeo and Juliet Fantasy Overture, his first masterpiece. Between these two works lies the oeuvre that Bychkov will eventually record, but this initial offering is sufficient to get collectors and Tchaikovsky fans excited. Bychkov delivers a riveting performance of the "Pathétique" with the Czech Philharmonic, choosing high energy over melancholy and making the symphony sound surprisingly defiant through its muscular counterpoint and vigorous rhythms. Romeo and Juliet also receives a dynamic interpretation, which makes the fight music especially ferocious and the overly familiar love theme unexpectedly vital in its urgency. This is an impressive beginning for a series that’s sure to become an essential part of many music collections.

AllMusic

Semyon Bychkov, Czech Philharmonic - The Tchaikovsky Project: Pathetique, Romeo & Juliet (2016)

Track List:

Symphony No. 6 in B minor, Op. 74 "Pathétique"
01. I. Adagio – Allegro non troppo
02. II. Allegro con grazia
03. III. Allegro molto vivace
04. IV. Adagio lamentoso

05. Romeo & Juliet Fantasy Overture, TH.42

Performers:
Czech Philharmonic
Semyon Bychkov

EAC Log
Exact Audio Copy V1.1 from 23. June 2015

EAC extraction logfile from 14. January 2017, 0:51

Czech Philharmonic, Semyon Bychkov / The Tchaikovsky Project, Vol.1

Used drive : HL-DT-STDVDRAM GU70N Adapter: 1 ID: 0

Read mode : Secure
Utilize accurate stream : Yes
Defeat audio cache : Yes
Make use of C2 pointers : No

Read offset correction : 48
Overread into Lead-In and Lead-Out : No
Fill up missing offset samples with silence : Yes
Delete leading and trailing silent blocks : No
Null samples used in CRC calculations : Yes
Used interface : Native Win32 interface for Win NT & 2000

Used output format : User Defined Encoder
Selected bitrate : 128 kBit/s
Quality : High
Add ID3 tag : No
Command line compressor : C:Program Files (x86)Exact Audio CopyFlacflac.exe
Additional command line options : -V -8 -T "Date=%year%" -T "Genre=%genre%" %source%

TOC of the extracted CD

Track | Start | Length | Start sector | End sector
––––––––––––––––––––––––––––-
1 | 0:00.00 | 17:58.05 | 0 | 80854
2 | 17:58.05 | 8:12.10 | 80855 | 117764
3 | 26:10.15 | 9:07.49 | 117765 | 158838
4 | 35:17.64 | 9:28.66 | 158839 | 201504
5 | 44:46.55 | 19:17.51 | 201505 | 288330

Range status and errors

Selected range

Filename C:tempThe Tchaikovsky Project, Vol.1The Tchaikovsky Project, Vol.1.wav

Peak level 93.3 %
Extraction speed 2.0 X
Range quality 100.0 %
Test CRC 9E2F7CD9
Copy CRC 9E2F7CD9
Copy OK

No errors occurred

AccurateRip summary

Track 1 not present in database
Track 2 not present in database
Track 3 not present in database
Track 4 not present in database
Track 5 not present in database

None of the tracks are present in the AccurateRip database

End of status report

==== Log checksum E2D9F04370063FBB84D9B61F08EDDCB6525E0E3993711DC2F405358AABB71E44 ====

CUETools Log
[CUETools log; Date: 10.10.2017 10:23:08; Version: 2.1.5]
[CTDB TOCID: PzdCt2Y8mVQvNQfIMcEMkfLVYsI-] found.
Track | CTDB Status
1 | (17/17) Accurately ripped
2 | (17/17) Accurately ripped
3 | (17/17) Accurately ripped
4 | (17/17) Accurately ripped
5 | (17/17) Accurately ripped
[AccurateRip ID: 000cedbf-003b5301-3f0f0405] found.
Track [ CRC | V2 ] Status
01 [e1286b8d|034ea675] (0+2/4) Accurately ripped
02 [3f4e5e1b|139ea0ed] (0+2/4) Accurately ripped
03 [da49f385|3ea787f7] (0+2/4) Accurately ripped
04 [38ef4af4|6144c2da] (0+2/4) Accurately ripped
05 [47f5bf21|048cc07a] (0+2/4) Accurately ripped
Offsetted by -12:
01 [0da84065] (0/4) No match (V2 was not tested)
02 [b9c59b6c] (0/4) No match (V2 was not tested)
03 [25810e50] (0/4) No match (V2 was not tested)
04 [26b2a088] (0/4) No match (V2 was not tested)
05 [c10820d6] (0/4) No match (V2 was not tested)

Track Peak [ CRC32 ] [W/O NULL] [ LOG ]
– 93,3 [9E2F7CD9] [90DCD350] CRC32
01 93,3 [8C3F7593] [DFA0F251]
02 66,2 [6410B900] [AFA0767B]
03 89,7 [D3975FA8] [CD55D69B]
04 89,3 [E66E50E8] [B83E35C8]
05 90,7 [83B46767] [D1173B55]

Thanks to the Original ripper A-Z!

Download:

Semyon Bychkov, Czech Philharmonic – The Tchaikovsky Project: Pathetique, Romeo & Juliet (2016) Download, Warez, DDL, Free, Full Album, Torrent, Legal.

Download